shubao

[BD-1080P] [欧美] [其他] 朽木/化外国度电影版 Deadwood.The.Movie.2019.1080p.BluRay.x264-PFa 7.63GB



帖子完整标题:朽木/化外国度电影版 Deadwood.The.Movie.2019.1080p.BluRay.x264-PFa 7.63GB




◎译  名 朽木 / 化外国度电影版(台) / 无法无天大电影(港)
◎片  名 Deadwood
◎年  代 2019
◎产  地 美国
◎类  别 西部
◎语  言 英语
◎上映日期 2019-05-31(美国)
◎IMDb评分 9.3/10 from 397 users
◎IMDb链接 http://www.imdb.com/title/tt4943998
◎豆瓣评分 0/10 from 0 users
◎豆瓣链接 https://movie.douban.com/subject/27164161/
◎导  演 丹尼尔·米纳汉 Daniel Minahan
◎编  剧 大卫·米尔契 David Milch
◎主  演 伊恩·麦柯肖恩 Ian McShane
      蒂莫西·奥利芬特 Timothy Olyphant
      金·迪肯斯 Kim Dickens
      布拉德·道里夫 Brad Dourif
      莫莉·帕克 Molly Parker
      肖恩·布里吉格斯 Sean Bridgers
      罗宾·薇格特 Robin Weigert
      安娜·冈 Anna Gunn
      葆拉·马尔科姆森 Paula Malcomson
      杰弗瑞·琼斯 Jeffrey Jones
      托尼·库兰 Tony Curran
      约翰·浩克斯 John Hawkes
      杰拉尔德·麦克雷尼 Gerald McRaney
      W·厄尔·布朗 W. Earl Brown
      威廉·桑德森 William Sanderson
      戴顿·考利 Dayton Callie
      杰德·佩蒂约翰 Jade Pettyjohn
      Geri Jewell
      基内·扬 Keone Young
      Franklyn Ajaye
      Jerry Cantrell
      伊戈·米基塔斯 Ego Mikitas
      范·埃佩尔森 Van Epperson
      哈尔·戴恩 Hal Dion


◎标  签 西部 | 美国 | HBO | 2019 | TimothyOlyphant | 美国电影 | 电影 | 这是我最爱的西部片

◎简  介

  HBO正式宣布电影版[朽木]将于10月开机,有望明春播出。去年便已传出《朽木》编剧大卫·米尔契已完成了电影版剧本。剧版于2004年至2006年播出了三季,但粉丝始终没有迎来最终的大结局,该剧故事围绕美国疆界之外的一个矿镇展开。此前有消息称原剧众卡司均有望回归,包括伊恩·麦柯肖恩、蒂莫西·奥利芬特、约翰·浩克斯、莫莉·帕克、布拉德·道里夫等。

Video
ID : 1
Format : AVC
Format/Info : Advanced Video Codec
Format profile : [email protected]
Format settings : CABAC / 4 Ref Frames
Format settings, CABAC : Yes
Format settings, Reference frames : 4 frames
Codec ID : V_MPEG4/ISO/AVC
Duration : 1 h 50 min
Bit rate : 8 422 kb/s
Width : 1 920 pixels
Height : 960 pixels
Display aspect ratio : 2.000
Frame rate mode : Constant
Frame rate : 23.976 (24000/1001) FPS
Color space : YUV
Chroma subsampling : 4:2:0
Bit depth : 8 bits
Scan type : Progressive
Bits/(Pixel*Frame) : 0.191
Stream size : 6.47 GiB (85%)
Writing library : x264 core 157 r2969 d4099dd
Encoding settings : cabac=1 / ref=4 / deblock=1:0:0 / analyse=0x3:0x133 / me=umh / subme=8 / psy=1 / psy_rd=1.00:0.00 / mixed_ref=1 / me_range=16 / chroma_me=1 / trellis=1 / 8x8dct=1 / cqm=0 / deadzone=21,11 / fast_pskip=0 / chroma_qp_offset=-2 / threads=12 / lookahead_threads=2 / sliced_threads=0 / nr=0 / decimate=1 / interlaced=0 / bluray_compat=0 / constrained_intra=0 / bframes=3 / b_pyramid=2 / b_adapt=1 / b_bias=0 / direct=1 / weightb=1 / open_gop=0 / weightp=2 / keyint=250 / keyint_min=23 / scenecut=40 / intra_refresh=0 / rc_lookahead=40 / rc=2pass / mbtree=1 / bitrate=8422 / ratetol=1.0 / qcomp=0.60 / qpmin=0 / qpmax=69 / qpstep=4 / cplxblur=20.0 / qblur=0.5 / ip_ratio=1.40 / aq=1:1.00
Language : English
Default : Yes
Forced : No

Audio
ID : 2
Format : DTS
Format/Info : Digital Theater Systems
Codec ID : A_DTS
Duration : 1 h 50 min
Bit rate mode : Constant
Bit rate : 1 509 kb/s
Channel(s) : 6 channels
Channel layout : C L R Ls Rs LFE
Sampling rate : 48.0 kHz
Frame rate : 93.750 FPS (512 SPF)
Bit depth : 24 bits
Compression mode : Lossy
Stream size : 1.16 GiB (15%)
Default : Yes
Forced : No






1 个附件(点击附件名进行下载) 售价 大小 下载 时间

0 金币 38.84K 49 次 9天前

#1楼
发帖时间:9天前   |   查看数:0   |   回复数:0
游客组
快速回复