wenba

[WEB-1080P] [2015] [欧美] [剧情] 敌对边境 Hostile.Border.2015.1080p.AMZN.WEBRip.DDP5.1.x264-TEPES 3.79GB



帖子完整标题:敌对边境 Hostile.Border.2015.1080p.AMZN.WEBRip.DDP5.1.x264-TEPES 3.79GB




◎译  名 敌对边境 / Hostile Border / Pocha
◎片  名 Pocha: Manifest Destiny
◎年  代 2015
◎产  地 美国
◎类  别 剧情
◎语  言 英语 / 西班牙语
◎上映日期 2015-06-14(美国)
◎IMDb评分 5.4/10 from 497 users
◎IMDb链接 http://www.imdb.com/title/tt5061570
◎豆瓣评分 5.5/10 from 116 users
◎豆瓣链接 https://movie.douban.com/subject/26739926/
◎片  长 88分钟
◎导  演 Michael Dwyer
◎编  剧 Kaitlin McLaughlin
◎主  演 Veronica Sixtos
      胡里奥·赛迪罗 Julio Cedillo
      Roberto Urbina
      Jorge A. Jimenez
      杰西·加西亚 Jesse Garcia
      María del Carmen Farias
      Joe Chacon
      Sebastian Feldman
      Toy Lei
      迈克尔·纳德利 Michael Nardelli
      Patrick Quinlan
      Sandra Santiago
      Derek Viveiros


◎标  签 犯罪 | 美国 | 墨西哥 | 剧情 | 美国电影 | 人性 | 2015 | 西部片

◎简  介

  墨西哥裔女孩克劳丽娅自幼和母亲在美国一起生活。由于过度宠爱,不知天高地厚,年纪轻轻就犯下大罪,被羁押回故乡墨西哥。剧情就此展开.....
Video
ID : 1
Format : AVC
Format/Info : Advanced Video Codec
Format profile : [email protected]
Format settings : CABAC / 4 Ref Frames
Format settings, CABAC : Yes
Format settings, Reference frames : 4 frames
Codec ID : V_MPEG4/ISO/AVC
Duration : 1 h 23 min
Bit rate mode : Constant
Bit rate : 5 839 kb/s
Nominal bit rate : 10 000 kb/s
Width : 1 920 pixels
Height : 816 pixels
Display aspect ratio : 2.35:1
Frame rate mode : Constant
Frame rate : 23.976 (24000/1001) FPS
Color space : YUV
Chroma subsampling : 4:2:0
Bit depth : 8 bits
Scan type : Progressive
Bits/(Pixel*Frame) : 0.155
Stream size : 3.41 GiB (90%)
Default : Yes
Forced : No
Color range : Limited
Color primaries : BT.709
Transfer characteristics : BT.709
Matrix coefficients : BT.709

Audio
ID : 2
Format : E-AC-3
Format/Info : Enhanced AC-3
Commercial name : Dolby Digital Plus
Codec ID : A_EAC3
Duration : 1 h 23 min
Bit rate mode : Constant
Bit rate : 640 kb/s
Channel(s) : 6 channels
Channel layout : L R C LFE Ls Rs
Sampling rate : 48.0 kHz
Frame rate : 31.250 FPS (1536 SPF)
Compression mode : Lossy
Stream size : 383 MiB (10%)
Language : English
Service kind : Complete Main
Default : Yes
Forced : No

Text #1
ID : 3
Format : UTF-8
Codec ID : S_TEXT/UTF8
Codec ID/Info : UTF-8 Plain Text
Duration : 1 h 20 min
Bit rate : 26 b/s
Count of elements : 627
Stream size : 15.4 KiB (0%)
Language : English
Default : No
Forced : No

Text #2
ID : 4
Format : UTF-8
Codec ID : S_TEXT/UTF8
Codec ID/Info : UTF-8 Plain Text
Duration : 1 h 20 min
Bit rate : 26 b/s
Count of elements : 627
Stream size : 15.4 KiB (0%)
Title : SDH
Language : English
Default : No
Forced : No






1 个附件(点击附件名进行下载) 售价 大小 下载 时间

0 金币 38.42K 42 次 9天前

#1楼
发帖时间:9天前   |   查看数:0   |   回复数:0
游客组
快速回复