zacao

[BD-1080P] [2009] [其他] [惊悚] 怪談 The.Unbelievable.2009.1080p.BluRay.x264-aBD 6.55GB



帖子完整标题:怪談 The.Unbelievable.2009.1080p.BluRay.x264-aBD 6.55GB




◎译  名 怪谈 / The Unbelievable / 怪谈大电影
◎片  名 怪談
◎年  代 2009
◎产  地 中国香港
◎类  别 惊悚 / 恐怖 / 纪录片
◎语  言 粤语
◎上映日期 2009-09-03(中国香港)
◎IMDb评分 5.9/10 from 7 users
◎IMDb链接 http://www.imdb.com/title/tt6448406
◎豆瓣评分 5.7/10 from 1024 users
◎豆瓣链接 https://movie.douban.com/subject/4022098/
◎片  长 82分钟
◎导  演 陈达年
◎主  演 司徒法正 Six-Ching Szeto
      陈晓华 Hiu-wah Chan


◎标  签 香港 | 恐怖 | 灵异 | 纪录片 | 香港电影 | 怪谈 | 2009 | 惊悚

◎简  介

  影片简介:
  《怪谈》原班人马将带你进入最惊吓的灵异新境界!摄制队搵命搏将观众从未目睹的灵异猛料破禁大晒冷,灵体、尸体及裸体样样齐,全新摄制激爆内容挑战III级尺度。千亿遗产风水专家证人司徒法正更亲自率领摄制队闯入东南亚各死亡禁地。出位踩界的「搵鬼」行程极度震撼,既有女主持Rachel夜探停尸间向尸体丧喷阳气引发中邪疑云、摄制队又踩入怡保的猛鬼晒骨村大玩碟仙,还跟随执尸队见死人即摆阵招魂。令人毛骨悚然的奇人异士纷纷现身,当中包括黑巫师活咬生鸡喂「鬼仔」、鲸吞怪虫解降的法师及进行猥亵和合降……电影《怪谈》要惊有惊要鬼有鬼,够胆你就?!
Video
ID : 1
Format : AVC
Format/Info : Advanced Video Codec
Format profile : [email protected]
Format settings : CABAC / 4 Ref Frames
Format settings, CABAC : Yes
Format settings, ReFrames : 4 frames
Codec ID : V_MPEG4/ISO/AVC
Duration : 1 h 20 min
Bit rate : 11.0 Mb/s
Width : 1 856 pixels
Height : 1 080 pixels
Display aspect ratio : 1.719
Frame rate mode : Constant
Frame rate : 24.000 FPS
Color space : YUV
Chroma subsampling : 4:2:0
Bit depth : 8 bits
Scan type : Progressive
Bits/(Pixel*Frame) : 0.228
Stream size : 6.06 GiB (93%)
Writing library : x264 core 110 r1820 fdcf2ae
Encoding settings : cabac=1 / ref=4 / deblock=1:-1:-1 / analyse=0x3:0x113 / me=umh / subme=7 / psy=1 / psy_rd=1.00:0.00 / mixed_ref=1 / me_range=16 / chroma_me=1 / trellis=1 / 8x8dct=1 / cqm=0 / deadzone=21,11 / fast_pskip=1 / chroma_qp_offset=-2 / threads=12 / sliced_threads=0 / nr=0 / decimate=1 / interlaced=0 / constrained_intra=0 / bframes=3 / b_pyramid=2 / b_adapt=2 / b_bias=0 / direct=3 / weightb=1 / open_gop=0 / weightp=2 / keyint=250 / keyint_min=24 / scenecut=40 / intra_refresh=0 / rc_lookahead=40 / rc=2pass / mbtree=1 / bitrate=10985 / ratetol=1.0 / qcomp=0.60 / qpmin=0 / qpmax=51 / qpstep=4 / cplxblur=20.0 / qblur=0.5 / vbv_maxrate=50000 / vbv_bufsize=50000 / ip_ratio=1.40 / aq=1:1.00 / nal_hrd=none
Language : Chinese
Default : Yes
Forced : Yes

Audio
ID : 2
Format : AC-3
Format/Info : Audio Coding 3
Codec ID : A_AC3
Duration : 1 h 20 min
Bit rate mode : Constant
Bit rate : 640 kb/s
Channel(s) : 6 channels
Channel positions : Front: L C R, Side: L R, LFE
Sampling rate : 48.0 kHz
Frame rate : 31.250 FPS (1536 SPF)
Bit depth : 16 bits
Compression mode : Lossy
Stream size : 370 MiB (6%)
Language : Chinese
Service kind : Complete Main
Default : Yes
Forced : Yes

Text
ID : 3
Format : UTF-8
Codec ID : S_TEXT/UTF8
Codec ID/Info : UTF-8 Plain Text
Language : English
Default : Yes
Forced : No






1 个附件(点击附件名进行下载) 售价 大小 下载 时间

0 金币 66.04K 15 次 9天前

#1楼
发帖时间:9天前   |   查看数:0   |   回复数:0
游客组
快速回复