wenba

[BD-1080P] [2018] [其他] [剧情] 花甲大人轉男孩 Back.To.The.Good.Times.2018.CHINESE.1080p.BluRay.x264.DTS-WiKi 10.99GB



帖子完整标题:花甲大人轉男孩 Back.To.The.Good.Times.2018.CHINESE.1080p.BluRay.x264.DTS-WiKi 10.99GB




◎译  名 花甲大人转男孩 / Back to the Good Times / 花甲男孩转大人 电影版
◎片  名 花甲大人轉男孩
◎年  代 2018
◎产  地 中国台湾
◎类  别 剧情 / 喜剧
◎语  言 汉语普通话
◎上映日期 2018-02-09(中国台湾)
◎IMDb评分 5.3/10 from 136 users
◎IMDb链接 http://www.imdb.com/title/tt7827658
◎豆瓣评分 6.3/10 from 1007 users
◎豆瓣链接 https://movie.douban.com/subject/27177907/
◎片  长 109分钟
◎导  演 瞿友宁 Arthur Chu Yu-Ning
◎编  剧 杨富闵 Fu-min Yang
◎主  演 卢广仲 Crowd Lu
      蔡振南 Chen-Nan Tsai
      柯叔元 Alex Shu-Yuan Ko
      康晋荣 Chin-Jung Kang
      龙劭华 Siu Wa Lung
      严正岚 Vera Yen
      刘冠廷 Kuan-ting Liu
      江宜蓉 Yi-Jung Chiang
      海芬 Heaven Hai
      范足妹 Chu-Mei Fan
      林意箴 Diane Lin
      曲献平 Barry Qu
      叶辰莛 Chen-Ting Yeh


◎标  签 台湾 | 台湾电影 | 卢广仲 | 2018 | 喜剧 | 台灣電影 | 台灣電影2018 | 賀歲片

◎简  介

  阿嬤準備要做對年了,花甲也在這時候退伍,和情人阿瑋開心重逢之際,卻遇上青梅竹馬的雅婷來求救,希望他幫忙解決前男友來找麻煩,花甲智退來敵,大家狂歡之際,隔天早晨,花甲卻發現自己和阿瑋裸體躺在床上!!!
  阿瑋古板的父母生氣到訪祖厝討論花甲該如何負責?卻發生一連串巧合和誤會,讓雙方家庭的初次見面成了暴走且荒唐的鬧劇,大打出手,阿瑋更氣花甲的無能表現,失望離開。
  花甲藉口尿遁躲了起來,衰到居然自己還放了個屁臭死自己,不得已還是得出來面對難關之時,卻發現家人都不見,而人生即將面對空前的危機,他必須該如何才能像超人一樣拯救自己與自己的家族呢?
Video
ID : 1
Format : AVC
Format/Info : Advanced Video Codec
Format profile : [email protected]
Format settings : CABAC / 5 Ref Frames
Format settings, CABAC : Yes
Format settings, Reference frames : 5 frames
Codec ID : V_MPEG4/ISO/AVC
Duration : 1 h 58 min
Bit rate : 11.8 Mb/s
Width : 1 920 pixels
Height : 802 pixels
Display aspect ratio : 2.40:1
Frame rate mode : Constant
Frame rate : 24.000 FPS
Color space : YUV
Chroma subsampling : 4:2:0
Bit depth : 8 bits
Scan type : Progressive
Bits/(Pixel*Frame) : 0.320
Stream size : 9.75 GiB (89%)
Writing library : x264 core 129 r2245 bc13772
Encoding settings : cabac=1 / ref=5 / deblock=1:-3:-3 / analyse=0x3:0x133 / me=umh / subme=11 / psy=1 / psy_rd=1.05:0.05 / mixed_ref=1 / me_range=64 / chroma_me=1 / trellis=2 / 8x8dct=1 / cqm=0 / deadzone=21,11 / fast_pskip=0 / chroma_qp_offset=-3 / threads=6 / lookahead_threads=1 / sliced_threads=0 / nr=0 / decimate=1 / interlaced=0 / bluray_compat=0 / constrained_intra=0 / bframes=8 / b_pyramid=2 / b_adapt=2 / b_bias=0 / direct=3 / weightb=1 / open_gop=0 / weightp=2 / keyint=250 / keyint_min=24 / scenecut=40 / intra_refresh=0 / rc_lookahead=60 / rc=2pass / mbtree=1 / bitrate=11809 / ratetol=1.0 / qcomp=0.60 / qpmin=0 / qpmax=69 / qpstep=4 / cplxblur=20.0 / qblur=0.5 / vbv_maxrate=40000 / vbv_bufsize=30000 / nal_hrd=none / ip_ratio=1.40 / aq=1:0.80
Language : English
Default : Yes
Forced : No

Audio
ID : 2
Format : DTS
Format/Info : Digital Theater Systems
Codec ID : A_DTS
Duration : 1 h 58 min
Bit rate mode : Constant
Bit rate : 1 509 kb/s
Channel(s) : 6 channels
Channel layout : C L R Ls Rs LFE
Sampling rate : 48.0 kHz
Frame rate : 93.750 FPS (512 SPF)
Bit depth : 16 bits
Compression mode : Lossy
Stream size : 1.25 GiB (11%)
Language : Chinese
Default : Yes
Forced : No

Text #1
ID : 3
Format : UTF-8
Codec ID : S_TEXT/UTF8
Codec ID/Info : UTF-8 Plain Text
Duration : 1 h 54 min
Bit rate : 66 b/s
Count of elements : 2823
Stream size : 55.8 KiB (0%)
Language : English
Default : No
Forced : No

Text #2
ID : 4
Format : UTF-8
Codec ID : S_TEXT/UTF8
Codec ID/Info : UTF-8 Plain Text
Duration : 1 h 54 min
Bit rate : 67 b/s
Count of elements : 2829
Stream size : 56.8 KiB (0%)
Title : 简体
Language : Chinese
Default : Yes
Forced : No

Text #3
ID : 5
Format : UTF-8
Codec ID : S_TEXT/UTF8
Codec ID/Info : UTF-8 Plain Text
Duration : 1 h 54 min
Bit rate : 67 b/s
Count of elements : 2829
Stream size : 56.8 KiB (0%)
Title : 繁体
Language : Chinese
Default : No
Forced : No






1 个附件(点击附件名进行下载) 售价 大小 下载 时间

0 金币 55.52K 18 次 9天前

#1楼
发帖时间:9天前   |   查看数:0   |   回复数:0
游客组
快速回复