tianji

[BD-1080P] [2017] [欧美] [其他] 盖·马丁的一战坦克 Guy.Martin.WW1.Tank.2017.1080p.BluRay.x264-GHOULS 6.57GB



帖子完整标题:盖·马丁的一战坦克 Guy.Martin.WW1.Tank.2017.1080p.BluRay.x264-GHOULS 6.57GB




◎译  名 盖·马丁的一战坦克
◎片  名 Guy Martin WW1 Tank
◎年  代 2017
◎产  地 英国
◎类  别 纪录片
◎语  言 英语
◎上映日期 2017-11-19(英国)
◎IMDb评分 7.3/10 from 60 users
◎IMDb链接 http://www.imdb.com/title/tt7664228
◎豆瓣评分 0/10 from 0 users
◎豆瓣链接 https://movie.douban.com/subject/30164441/
◎片  长 120分钟
◎导  演 Ewan Keil
◎主  演 盖·马丁 Guy Martin


◎标  签 紀錄片

◎简  介

  暂无相关剧情介绍
Video
ID : 1
Format : AVC
Format/Info : Advanced Video Codec
Format profile : [email protected]
Format settings : CABAC / 4 Ref Frames
Format settings, CABAC : Yes
Format settings, RefFrames : 4 frames
Codec ID : V_MPEG4/ISO/AVC
Duration : 1 h 29 min
Bit rate : 9 903 kb/s
Width : 1 920 pixels
Height : 1 080 pixels
Display aspect ratio : 16:9
Frame rate mode : Constant
Frame rate : 25.000 FPS
Color space : YUV
Chroma subsampling : 4:2:0
Bit depth : 8 bits
Scan type : Progressive
Bits/(Pixel*Frame) : 0.191
Stream size : 6.02 GiB (92%)
Writing library : x264 core 155 r2901 7d0ff22
Encoding settings : cabac=1 / ref=4 / deblock=1:-3:-3 / analyse=0x3:0x133 / me=umh / subme=8 / psy=1 / psy_rd=1.00:0.00 / mixed_ref=1 / me_range=16 / chroma_me=1 / trellis=1 / 8x8dct=1 / cqm=0 / deadzone=21,11 / fast_pskip=0 / chroma_qp_offset=-2 / threads=24 / lookahead_threads=4 / sliced_threads=0 / nr=0 / decimate=1 / interlaced=0 / bluray_compat=0 / constrained_intra=0 / bframes=3 / b_pyramid=2 / b_adapt=1 / b_bias=0 / direct=3 / weightb=1 / open_gop=0 / weightp=2 / keyint=250 / keyint_min=25 / scenecut=40 / intra_refresh=0 / rc_lookahead=50 / rc=2pass / mbtree=1 / bitrate=9903 / ratetol=1.0 / qcomp=0.60 / qpmin=0 / qpmax=69 / qpstep=4 / cplxblur=20.0 / qblur=0.5 / vbv_maxrate=62500 / vbv_bufsize=78125 / nal_hrd=none / filler=0 / ip_ratio=1.40 / aq=1:1.00
Default : Yes
Forced : No

Audio
ID : 2
Format : AC-3
Format/Info : Audio Coding 3
Format settings, Endianness : Big
Codec ID : A_AC3
Duration : 1 h 29 min
Bit rate mode : Constant
Bit rate : 640 kb/s
Channel(s) : 2 channels
Channel positions : Front: L R
Sampling rate : 48.0 kHz
Frame rate : 31.250 FPS (1536 SPF)
Bit depth : 16 bits
Compression mode : Lossy
Stream size : 408 MiB (6%)
Language : English
Service kind : Complete Main
Default : Yes
Forced : No

Menu
00:00:00.000 : en:00:00:00.000
00:10:30.520 : en:00:10:30.520
00:21:05.560 : en:00:21:05.560
00:30:36.680 : en:00:30:36.680
00:41:52.000 : en:00:41:52.000
00:53:26.360 : en:00:53:26.360
01:04:47.800 : en:01:04:47.800
01:17:05.080 : en:01:17:05.080






1 个附件(点击附件名进行下载) 售价 大小 下载 时间

0 金币 132.18K 27 次 10天前

#1楼
发帖时间:10天前   |   查看数:0   |   回复数:0
游客组
快速回复