bulaite

[BD-1080P] [2010] [欧美] [其他] 数到零 Countdown.to.Zero.2010.1080p.BluRay.x264-CiNEFiLE 6.56GB



帖子完整标题:数到零 Countdown.to.Zero.2010.1080p.BluRay.x264-CiNEFiLE 6.56GB




◎译  名 数到零
◎片  名 Countdown to Zer?
◎年  代 2010
◎产  地 美国
◎类  别 纪录片
◎语  言 英语
◎上映日期 2010-06-24
◎IMDb评分 6.9/10 from 2077 users
◎IMDb链接 http://www.imdb.com/title/tt1572769
◎豆瓣评分 7.7/10 from 609 users
◎豆瓣链接 https://movie.douban.com/subject/4826840/
◎片  长 90分钟
◎导  演 露西·沃克 Lucy Walker
◎编  剧 露西·沃克 Lucy Walker
◎主  演 Graham Allison
      James Baker III
      Bruce Blair
      托尼·布莱尔 Tony Blair


◎标  签 纪录片 | 美国 | 核武器 | 军事 | 2010 | 战争 | Documentary | 美国电影

◎简  介

  1945年的8月,美国分别在日本的广岛和长崎投下两颗原子弹。这种前所未见、杀伤力巨大的武器虽然加快了战争结束的步伐,却将人类带入新一轮的恐慌之中。二战过后,东西方两大阵营相继展开核武器竞赛,继美国之后,苏联、英国、法国、中国、以色列相继完成核武器的开发。迄至于今,世界上已有9个国家掌握了这项技术,核弹头数量一度达到6万枚之多。这些恐怖武器成为悬在人类头顶上的达摩克利斯宝剑,任何的误判、失误乃至疯狂都会引发人类文明的毁灭。然而重要的原料如铀、钚等却通过各种渠道流出,人们通过核武器相互制衡,甚至不惜将彼此带至深渊……
Video
ID : 1
Format : AVC
Format/Info : Advanced Video Codec
Format profile : [email protected]
Format settings, CABAC : Yes
Format settings, ReFrames : 4 frames
Codec ID : V_MPEG4/ISO/AVC
Duration : 1h 28mn
Bit rate : 9 044 Kbps
Width : 1 920 pixels
Height : 1 080 pixels
Display aspect ratio : 16:9
Frame rate mode : Constant
Frame rate : 23.976 fps
Color space : YUV
Chroma subsampling : 4:2:0
Bit depth : 8 bits
Scan type : Progressive
Bits/(Pixel*Frame) : 0.182
Stream size : 5.49 GiB (84%)
Title : English
Writing library : x264 core 108 r1790 8eaf8a6
Encoding settings : cabac=1 / ref=4 / deblock=1:0:0 / analyse=0x3:0x133 / me=umh / subme=7 / psy=1 / psy_rd=1.00:0.00 / mixed_ref=1 / me_range=16 / chroma_me=1 / trellis=1 / 8x8dct=1 / cqm=0 / deadzone=21,11 / fast_pskip=0 / chroma_qp_offset=-2 / threads=12 / sliced_threads=0 / nr=0 / decimate=1 / interlaced=0 / constrained_intra=0 / bframes=3 / b_pyramid=2 / b_adapt=1 / b_bias=0 / direct=1 / weightb=1 / open_gop=0 / weightp=2 / keyint=250 / keyint_min=23 / scenecut=40 / intra_refresh=0 / rc_lookahead=40 / rc=2pass / mbtree=1 / bitrate=9044 / ratetol=1.0 / qcomp=0.60 / qpmin=10 / qpmax=51 / qpstep=4 / cplxblur=20.0 / qblur=0.5 / ip_ratio=1.40 / aq=1:1.00
Language : English
Default : Yes
Forced : Yes

Audio
ID : 2
Format : DTS
Format/Info : Digital Theater Systems
Mode : 16
Format settings, Endianness : Big
Codec ID : A_DTS
Duration : 1h 28mn
Bit rate mode : Constant
Bit rate : 1 509 Kbps
Channel(s) : 6 channels
Channel positions : Front: L C R, Side: L R, LFE
Sampling rate : 48.0 KHz
Frame rate : 93.750 fps (512 spf)
Bit depth : 24 bits
Compression mode : Lossy
Stream size : 960 MiB (14%)
Title : English Audio
Language : English
Default : Yes
Forced : Yes

Text
ID : 3
Format : UTF-8
Codec ID : S_TEXT/UTF8
Codec ID/Info : UTF-8 Plain Text
Title : English Subtitles
Language : English
Default : No
Forced : No






1 个附件(点击附件名进行下载) 售价 大小 下载 时间

0 金币 66.17K 17 次 10天前

#1楼
发帖时间:10天前   |   查看数:0   |   回复数:0
游客组
快速回复