buzhidao

[BD-1080P] [2016] [欧美] [其他] 讣闻/讣告 Obit.2016.LIMITED.1080p.BluRay.x264-BiPOLAR 7.65GB



帖子完整标题:讣闻/讣告 Obit.2016.LIMITED.1080p.BluRay.x264-BiPOLAR 7.65GB




◎译  名 讣闻 / 讣告
◎片  名 Obit
◎年  代 2016
◎产  地 美国
◎类  别 纪录片
◎语  言 英语
◎上映日期 2016-04-15(美国)
◎IMDb评分 7.2/10 from 579 users
◎IMDb链接 http://www.imdb.com/title/tt4820284
◎豆瓣评分 7.7/10 from 71 users
◎豆瓣链接 https://movie.douban.com/subject/26803394/
◎片  长 95分钟
◎导  演 Vanessa Gould
◎主  演 Bruce Weber
      William McDonald
      Margalit Fox


◎标  签 纪录片 | 美国 | 2016 | Documentary | 媒体 | 死亡 | 新闻 | 讣闻

◎简  介

  在美国,每年大约有259万人去世,但其中,只有1000人会在死后登上《纽约时报》,成为讣闻报道的主角。
  这些讣告不是仪式公文般的死亡告知函,而是由专业讣闻作者执笔的生平故事。他们在有限的篇幅里,告诉我们这位逝者为什么值得大家关注,生前又是如何影响了世界。
  作为少数拥有全职讣闻作者的媒体,《纽约时报》讣闻版的主题既可以是知名人物如David Bowie,也可以是独自划船横渡大西洋和太平洋的无名英雄。无论对象是谁,编辑室的讣闻作者都会倾力收集这些人物的资料,联系他们的家人朋友,确认所有信息正确无误,和每天晚上的截稿时间赛跑。
  在95分钟的电影《讣闻》里,导演Vanessa Gould的镜头并没有超出《纽约时报》编辑部的范围之外,也无意深入探讨这个行业的种种问题(数字新闻会威胁它的生存吗?未来会往哪里去?),而是集中呈现了讣闻作者的日常,以及他们不得不面对的局限。
Video
ID : 1
Format : AVC
Format/Info : Advanced Video Codec
Format profile : [email protected]
Format settings : CABAC / 4 Ref Frames
Format settings, CABAC : Yes
Format settings, RefFrames : 4 frames
Codec ID : V_MPEG4/ISO/AVC
Duration : 1 h 35 min
Bit rate : 9 983 kb/s
Width : 1 920 pixels
Height : 1 080 pixels
Display aspect ratio : 16:9
Frame rate mode : Constant
Frame rate : 23.976 (24000/1001) FPS
Color space : YUV
Chroma subsampling : 4:2:0
Bit depth : 8 bits
Scan type : Progressive
Bits/(Pixel*Frame) : 0.201
Stream size : 6.64 GiB (87%)
Writing library : x264 core 155 r2901 7d0ff22
Encoding settings : cabac=1 / ref=4 / deblock=1:-3:-3 / analyse=0x3:0x133 / me=umh / subme=9 / psy=1 / psy_rd=1.00:0.00 / mixed_ref=1 / me_range=16 / chroma_me=1 / trellis=2 / 8x8dct=1 / cqm=0 / deadzone=21,11 / fast_pskip=0 / chroma_qp_offset=-2 / threads=12 / lookahead_threads=1 / sliced_threads=0 / nr=0 / decimate=1 / interlaced=0 / bluray_compat=0 / constrained_intra=0 / bframes=3 / b_pyramid=2 / b_adapt=1 / b_bias=0 / direct=3 / weightb=1 / open_gop=0 / weightp=2 / keyint=240 / keyint_min=24 / scenecut=40 / intra_refresh=0 / rc_lookahead=50 / rc=2pass / mbtree=1 / bitrate=9983 / ratetol=1.0 / qcomp=0.60 / qpmin=0 / qpmax=69 / qpstep=4 / cplxblur=20.0 / qblur=0.5 / ip_ratio=1.40 / aq=1:1.00
Language : English
Default : Yes
Forced : No

Audio
ID : 2
Format : DTS
Format/Info : Digital Theater Systems
Mode : 16
Format settings, Endianness : Big
Codec ID : A_DTS
Duration : 1 h 35 min
Bit rate mode : Constant
Bit rate : 1 509 kb/s
Channel(s) : 6 channels
Channel positions : Front: L C R, Side: L R, LFE
Sampling rate : 48.0 kHz
Frame rate : 93.750 FPS (512 SPF)
Bit depth : 24 bits
Compression mode : Lossy
Stream size : 1.00 GiB (13%)
Language : English
Default : Yes
Forced : No

Text #1
ID : 3
Format : UTF-8
Codec ID : S_TEXT/UTF8
Codec ID/Info : UTF-8 Plain Text
Duration : 1 h 32 min
Bit rate : 94 b/s
Count of elements : 1716
Stream size : 64.2 KiB (0%)
Title : English
Language : English
Default : No
Forced : No

Text #2
ID : 4
Format : UTF-8
Codec ID : S_TEXT/UTF8
Codec ID/Info : UTF-8 Plain Text
Duration : 1 h 32 min
Bit rate : 95 b/s
Count of elements : 1841
Stream size : 65.1 KiB (0%)
Title : SDH
Language : English
Default : No
Forced : No

Menu
00:00:00.000 : en:00:00:00.000
00:09:02.500 : en:00:09:02.500
00:18:53.215 : en:00:18:53.215
00:29:50.789 : en:00:29:50.789
00:38:47.367 : en:00:38:47.367
00:52:14.131 : en:00:52:14.131
01:00:15.654 : en:01:00:15.654
01:09:00.136 : en:01:09:00.136
01:19:38.899 : en:01:19:38.899
01:25:58.779 : en:01:25:58.779






1 个附件(点击附件名进行下载) 售价 大小 下载 时间

0 金币 77.17K 16 次 10天前

#1楼
发帖时间:10天前   |   查看数:0   |   回复数:0
游客组
快速回复