shubao

[BD-1080P] [2017] [其他] [剧情] 作家 The.Motive.2017.1080p.BluRay.x264-USURY 8.75GB



帖子完整标题:作家 The.Motive.2017.1080p.BluRay.x264-USURY 8.75GB




◎译  名 作家 / The Motive / 命运小说家(台)
◎片  名 El autor
◎年  代 2017
◎产  地 西班牙 / 墨西哥
◎类  别 剧情 / 喜剧
◎语  言 西班牙语 / 英语
◎上映日期 2017-11-17(西班牙)
◎IMDb评分 6.5/10 from 3446 users
◎IMDb链接 http://www.imdb.com/title/tt5451244
◎豆瓣评分 6.6/10 from 715 users
◎豆瓣链接 https://movie.douban.com/subject/27101749/
◎片  长 112分钟
◎导  演 曼纽尔·马丁·昆卡 Manuel Martín Cuenca
◎编  剧 哈维尔·塞尔加斯 Javier Cercas / 亚历杭德罗·埃尔南德斯 Alejandro Hernández / 曼纽尔·马丁·昆卡 Manuel Martín Cuenca
◎主  演 哈维尔·古铁雷斯 Javier Gutiérrez
      玛利亚·莱昂 María León
      阿德尔法·卡尔沃 Adelfa Calvo
      Adriana Paz
      特诺切·韦尔塔 Tenoch Huerta
      安东尼奥·德·拉·托雷 Antonio de la Torre
      克雷格·史蒂文森 Craig Stevenson
      华金·奥尔特加 Joaquín Ortega


◎标  签 西班牙 | 剧情 | 犯罪 | 悬疑 | 黑色幽默 | 2017 | 墨西哥 | 文艺

◎简  介

  主人公阿尔瓦罗(哈维尔·古铁雷斯 饰)是塞维利亚某公证处的一位小职员,虽然贫穷且缺乏天分,他却一直梦想自己有一天能成为一名畅销书作家。而他的妻子阿曼达(玛利亚·莱昂 饰),则与他截然相反,随随便便写了一本书就出名了。为了实现自己的理想,阿尔瓦罗去向写作老师胡安(安东尼奥·德·拉·托雷 饰)求教,在胡安的指导下,他终于明白,所谓的想象力,其实都是基于现实世界中的经验。为了写出完美的小说,他开始操纵周围的邻居朋友,甚至不惜怂恿他们杀人......
  影片改编自Javier Cercas的小说《El móvil》。

◎获奖情况

  第32届西班牙戈雅奖(2018)
  最佳影片(提名)
  最佳导演(提名) 曼纽尔·马丁·昆卡
  最佳男主角 哈维尔·古铁雷斯
  最佳男配角(提名) 安东尼奥·德·拉·托雷
  最佳女配角 阿德尔法·卡尔沃
  最佳新人女演员(提名) 阿德里安娜·帕兹
  最佳改编剧本(提名) 曼纽尔·马丁·昆卡 / 亚历杭德罗·埃尔南德斯
  最佳音效(提名)
  最佳原创歌曲(提名)

  第42届多伦多国际电影节(2017)
  国际影评人联盟奖 国际影评人特别奖 曼纽尔·马丁·昆卡

  第65届圣塞巴斯蒂安国际电影节(2017)
  金贝壳奖(提名) 曼纽尔·马丁·昆卡
Video
ID : 1
Format : AVC
Format/Info : Advanced Video Codec
Format profile : [email protected]
Format settings : CABAC / 4 Ref Frames
Format settings, CABAC : Yes
Format settings, RefFrames : 4 frames
Codec ID : V_MPEG4/ISO/AVC
Duration : 1 h 54 min
Bit rate : 9 473 kb/s
Width : 1 792 pixels
Height : 1 080 pixels
Display aspect ratio : 5:3
Frame rate mode : Constant
Frame rate : 24.000 FPS
Color space : YUV
Chroma subsampling : 4:2:0
Bit depth : 8 bits
Scan type : Progressive
Bits/(Pixel*Frame) : 0.204
Stream size : 7.54 GiB (86%)
Writing library : x264 core 155 r2901 7d0ff22
Encoding settings : cabac=1 / ref=4 / deblock=1:-3:-3 / analyse=0x3:0x133 / me=umh / subme=9 / psy=1 / psy_rd=1.00:0.00 / mixed_ref=1 / me_range=16 / chroma_me=1 / trellis=2 / 8x8dct=1 / cqm=0 / deadzone=21,11 / fast_pskip=0 / chroma_qp_offset=-2 / threads=24 / lookahead_threads=2 / sliced_threads=0 / nr=0 / decimate=1 / interlaced=0 / bluray_compat=0 / constrained_intra=0 / bframes=3 / b_pyramid=2 / b_adapt=1 / b_bias=0 / direct=3 / weightb=1 / open_gop=0 / weightp=2 / keyint=240 / keyint_min=24 / scenecut=40 / intra_refresh=0 / rc_lookahead=50 / rc=2pass / mbtree=1 / bitrate=9473 / ratetol=1.0 / qcomp=0.60 / qpmin=0 / qpmax=69 / qpstep=4 / cplxblur=20.0 / qblur=0.5 / ip_ratio=1.40 / aq=1:1.00
Language : English
Default : Yes
Forced : No

Audio
ID : 2
Format : DTS
Format/Info : Digital Theater Systems
Mode : 16
Format settings, Endianness : Big
Codec ID : A_DTS
Duration : 1 h 54 min
Bit rate mode : Constant
Bit rate : 1 509 kb/s
Channel(s) : 6 channels
Channel positions : Front: L C R, Side: L R, LFE
Sampling rate : 48.0 kHz
Frame rate : 93.750 FPS (512 SPF)
Bit depth : 24 bits
Compression mode : Lossy
Stream size : 1.20 GiB (14%)
Language : Spanish
Default : Yes
Forced : No

Text
ID : 3
Format : UTF-8
Codec ID : S_TEXT/UTF8
Codec ID/Info : UTF-8 Plain Text
Duration : 1 h 47 min
Bit rate : 52 b/s
Count of elements : 1176
Stream size : 41.1 KiB (0%)
Title : English
Language : English
Default : Yes
Forced : Yes

Menu
00:00:00.000 : en:00:00:00.000
00:15:34.875 : en:00:15:34.875
00:30:01.458 : en:00:30:01.458
00:43:35.417 : en:00:43:35.417
00:55:49.000 : en:00:55:49.000
01:10:08.625 : en:01:10:08.625
01:24:03.875 : en:01:24:03.875
01:36:18.708 : en:01:36:18.708






1 个附件(点击附件名进行下载) 售价 大小 下载 时间

0 金币 88.12K 25 次 10天前

#1楼
发帖时间:10天前   |   查看数:0   |   回复数:0
游客组
快速回复