qunide

[BD-1080P] [2010] [其他] [剧情] 一路有你 The.Road.Less.Traveled.2010.1080p.BluRay.x264-aBD 6.55GB



帖子完整标题:一路有你 The.Road.Less.Traveled.2010.1080p.BluRay.x264-aBD 6.55GB




◎译  名 The Road Less Travelled / 人迹罕至的路
◎片  名 一路有你
◎年  代 2010
◎产  地 中国香港 / 中国
◎类  别 剧情 / 爱情
◎语  言 汉语普通话 / 粤语
◎上映日期 2010-12-31
◎IMDb评分 6.3/10 from 101 users
◎IMDb链接 http://www.imdb.com/title/tt1797547
◎豆瓣评分 6.0/10 from 13930 users
◎豆瓣链接 https://movie.douban.com/subject/3574559/
◎片  长 108分钟
◎导  演 赵崇基 Sung Kee Chiu
◎编  剧 陈建忠 Kin Chung Chan / 赵崇基 Sung Kee Chiu
◎主  演 古天乐 Louis Koo
      莫文蔚 Karen Mok
      黄奕 Crystal Huang
      印小天 Xiaotian Yin
      陈西贝 Xibei Chen
      梁大维 Dawei Liang
      黎耀祥 Yiu-Cheung Lai


◎标  签 古天乐 | 莫文蔚 | 香港电影 | 爱情 | 香港 | 黄奕 | 一路有你 | 2010

◎简  介

  小夫妻张谦(印小天 饰)和陆茵(黄奕 饰)在高速公路旁经营一家小餐馆。深夜,张谦骑车回家,因接到陆茵电话,没留意路况,被许城亮(古天乐 饰)驾驶的货柜车撞到。张谦死亡,赶来医院陆茵发现自己怀孕,却决定生下孩子,重开餐馆经营。城亮对车祸心存愧疚,事隔数月,鼓起勇气走进陆茵 的餐馆用餐,更在女友苏珊(莫文蔚 饰) 体谅下,主动帮忙店内杂务,两人渐成好友。后陆茵发现城亮就是撞死丈夫的司机,着城亮被张谦弟张军痛打致重伤……
  城亮回到家中与苏珊矛盾加深,发现两人之间已存在差异,经常大吵。陆茵进院生产,城亮守候照顾,陆茵感动,但她深信城亮只是责任,后把餐馆结束,带儿子回家乡重过新生活,并请城亮回到苏珊身边。但城亮却发觉一切都不复从前,最终跟苏珊分手。半年后,城亮再回国内找寻他相信的东西,去餐馆找陆茵,却发现已经人走楼空……
Video
ID : 1
Format : AVC
Format/Info : Advanced Video Codec
Format profile : [email protected]
Format settings : CABAC / 5 Ref Frames
Format settings, CABAC : Yes
Format settings, ReFrames : 5 frames
Codec ID : V_MPEG4/ISO/AVC
Duration : 1 h 47 min
Bit rate : 8 065 kb/s
Width : 1 920 pixels
Height : 816 pixels
Display aspect ratio : 2.35:1
Frame rate mode : Constant
Frame rate : 24.000 FPS
Color space : YUV
Chroma subsampling : 4:2:0
Bit depth : 8 bits
Scan type : Progressive
Bits/(Pixel*Frame) : 0.214
Stream size : 5.94 GiB (91%)
Writing library : x264 core 114 r1913 5fd3dce
Encoding settings : cabac=1 / ref=5 / deblock=1:-1:-1 / analyse=0x3:0x113 / me=umh / subme=7 / psy=1 / psy_rd=1.00:0.00 / mixed_ref=1 / me_range=16 / chroma_me=1 / trellis=1 / 8x8dct=1 / cqm=0 / deadzone=21,11 / fast_pskip=1 / chroma_qp_offset=-2 / threads=12 / sliced_threads=0 / nr=0 / decimate=1 / interlaced=0 / constrained_intra=0 / bframes=3 / b_pyramid=2 / b_adapt=2 / b_bias=0 / direct=3 / weightb=1 / open_gop=0 / weightp=2 / keyint=250 / keyint_min=24 / scenecut=40 / intra_refresh=0 / rc_lookahead=40 / rc=2pass / mbtree=1 / bitrate=8065 / ratetol=1.0 / qcomp=0.60 / qpmin=0 / qpmax=69 / qpstep=4 / cplxblur=20.0 / qblur=0.5 / vbv_maxrate=50000 / vbv_bufsize=50000 / nal_hrd=none / ip_ratio=1.40 / aq=1:1.00
Language : Chinese
Default : Yes
Forced : Yes

Audio
ID : 2
Format : AC-3
Format/Info : Audio Coding 3
Codec ID : A_AC3
Duration : 1 h 47 min
Bit rate mode : Constant
Bit rate : 640 kb/s
Channel(s) : 6 channels
Channel positions : Front: L C R, Side: L R, LFE
Sampling rate : 48.0 kHz
Frame rate : 31.250 FPS (1536 SPF)
Bit depth : 16 bits
Compression mode : Lossy
Stream size : 493 MiB (7%)
Language : Chinese
Service kind : Complete Main
Default : Yes
Forced : Yes

Text
ID : 3
Format : UTF-8
Codec ID : S_TEXT/UTF8
Codec ID/Info : UTF-8 Plain Text
Language : English
Default : Yes
Forced : No






1 个附件(点击附件名进行下载) 售价 大小 下载 时间

0 金币 65.99K 15 次 10天前

#1楼
发帖时间:10天前   |   查看数:0   |   回复数:0
游客组
快速回复