style

[WEB-1080P] [2017] [其他] [惊悚] 致命吸引 Deadly.Attraction.2017.1080p.AMZN.WEBRip.DDP5.1.x264-KamiKaze 5.05GB



帖子完整标题:致命吸引 Deadly.Attraction.2017.1080p.AMZN.WEBRip.DDP5.1.x264-KamiKaze 5.05GB




◎译  名 致命吸引 / La viuda negra / Quelques milliards pour une veuve noire
◎片  名 Deadly Attraction
◎年  代 2017
◎产  地 加拿大 Canada
◎类  别 惊悚
◎语  言 英语
◎上映日期 2017-10-01(西班牙) / 2017-10-02(法国)
◎IMDb评分 5.1/10 from 60 users
◎IMDb链接 http://www.imdb.com/title/tt7130110
◎豆瓣评分 0/10 from 0 users
◎豆瓣链接 https://movie.douban.com/subject/30411362/
◎片  长 94分钟
◎导  演 George Erschbamer
◎编  剧 Joseph Nasser
◎主  演 琳赛·哈特利 Lindsay Hartley
      霍丽·迪威奥克斯 Holly Deveaux
      Steve Baran
      布里特妮·威尔逊 Brittney Wilson


◎标  签 科幻 | 恐怖

◎简  介

  Ruby Asher is a widow who seduces and murders wealthy politician Nicholas Landon. His vengeful daughter soon hatches a scheme to bring Ruby to justice before she can strike again.
Video
ID : 1
Format : AVC
Format/Info : Advanced Video Codec
Format profile : [email protected]
Format settings : CABAC / 4 Ref Frames
Format settings, CABAC : Yes
Format settings, Reference frames : 4 frames
Codec ID : V_MPEG4/ISO/AVC
Duration : 1 h 33 min
Bit rate mode : Constant
Bit rate : 7 063 kb/s
Nominal bit rate : 10 000 kb/s
Width : 1 920 pixels
Height : 1 080 pixels
Display aspect ratio : 16:9
Frame rate mode : Constant
Frame rate : 23.976 (24000/1001) FPS
Color space : YUV
Chroma subsampling : 4:2:0
Bit depth : 8 bits
Scan type : Progressive
Bits/(Pixel*Frame) : 0.142
Stream size : 4.63 GiB (92%)
Default : Yes
Forced : No
Color range : Limited
Color primaries : BT.709
Transfer characteristics : BT.709
Matrix coefficients : BT.709

Audio
ID : 2
Format : E-AC-3
Format/Info : Enhanced AC-3
Commercial name : Dolby Digital Plus
Codec ID : A_EAC3
Duration : 1 h 33 min
Bit rate mode : Constant
Bit rate : 640 kb/s
Channel(s) : 6 channels
Channel layout : L R C LFE Ls Rs
Sampling rate : 48.0 kHz
Frame rate : 31.250 FPS (1536 SPF)
Compression mode : Lossy
Stream size : 430 MiB (8%)
Language : English
Service kind : Complete Main
Default : Yes
Forced : No

Text
ID : 3
Format : UTF-8
Codec ID : S_TEXT/UTF8
Codec ID/Info : UTF-8 Plain Text
Duration : 1 h 28 min
Bit rate : 51 b/s
Count of elements : 1371
Stream size : 33.5 KiB (0%)
Title : English [CC](SDH)
Language : English
Default : Yes
Forced : No






1 个附件(点击附件名进行下载) 售价 大小 下载 时间

0 金币 25.82K 28 次 1月前

#1楼
发帖时间:1月前   |   查看数:0   |   回复数:0
游客组
快速回复