style

[BD-720P] [欧美] [喜剧] 昨日奇迹 Yesterday.2019.720p.BluRay.x264-DRONES 4.38GB



帖子完整标题:昨日奇迹 Yesterday.2019.720p.BluRay.x264-DRONES 4.38GB




◎译  名 昨日奇迹 / All You Need is Love / 你需要的只是爱 / 昨天 / 昨日 / 缘來自昨天(港) / 靠谱歌王(台)
◎片  名 Yesterday
◎年  代 2019
◎产  地 英国
◎类  别 喜剧 / 音乐 / 奇幻
◎语  言 英语
◎上映日期 2019-05-05(翠贝卡电影节) / 2019-06-28(英国) / 2019-08-16(中国大陆)
◎IMDb评分 7.0/10 from 31211 users
◎IMDb链接 http://www.imdb.com/title/tt8079248
◎豆瓣评分 6.6/10 from 3863 users
◎豆瓣链接 https://movie.douban.com/subject/30165034/
◎片  长 116分钟
◎导  演 丹尼·博伊尔 Danny Boyle
◎编  剧 杰克·巴斯 Jack Barth / 理查德·柯蒂斯 Richard Curtis
◎主  演 希米什·帕特尔 Himesh Patel
      莉莉·詹姆斯 Lily James
      艾德·希兰 Ed Sheeran
      凯特·麦克金农 Kate McKinnon
      阿历克斯·阿诺 Alexander Arnold
      乔尔·弗莱 Joel Fry
      詹姆斯·柯登 James Corden
      卡米利·陈 Camille Chen
      拉蒙尼·莫里斯 Lamorne Morris
      索菲娅·迪·马蒂诺 Sophia Di Martino
      卡米拉·拉瑟福德 Camilla Rutherford
      艾利斯·查普尔 Ellise Chappell
      莎拉·兰卡夏尔 Sarah Lancashire
      多米尼克·科尔曼 Dominic Coleman
      玛丽安娜·斯皮瓦克 Maryana Spivak
      詹妮弗·阿尔莫 Jennifer Armour
      安娜·德·阿玛斯 Ana de Armas
      哈廷·帕特尔 Hiten Patel
      阿图尔·夏尔马 Atul Sharma
      马诺伊·阿南德 Manoj Anand
      哈里·米歇尔 Harry Michell
      珊妮·姚 Sunny Yeo
      乔希·特雷特 Josh Trett
      西蒙·P·爱德华兹 Simon P Edwards


◎标  签 披头士 | 音乐 | 英国 | 喜剧 | 2019 | 摇滚 | 奇幻 | 平行穿越

◎简  介

  杰克(希米什·帕特尔 饰)是英国一个海滨小镇上苦苦挣扎的创作型歌手,有着好友艾莉(莉莉·詹姆斯 饰)的一直支持。在一次神秘的全球大停电中发生了一起奇怪的公交车事故,杰克醒来后发现披头士乐队根本从未存在过。他正面临着非常复杂的问题。
Video
ID : 1
Format : AVC
Format/Info : Advanced Video Codec
Format profile : [email protected]
Format settings : CABAC / 5 Ref Frames
Format settings, CABAC : Yes
Format settings, Reference frames : 5 frames
Codec ID : V_MPEG4/ISO/AVC
Duration : 1 h 56 min
Bit rate : 4 742 kb/s
Width : 1 280 pixels
Height : 536 pixels
Display aspect ratio : 2.40:1
Frame rate mode : Constant
Frame rate : 23.976 FPS
Color space : YUV
Chroma subsampling : 4:2:0
Bit depth : 8 bits
Scan type : Progressive
Bits/(Pixel*Frame) : 0.288
Stream size : 3.85 GiB (88%)
Writing library : x264 core 158 r2984 3759fcb
Encoding settings : cabac=1 / ref=5 / deblock=1:-3:-3 / analyse=0x3:0x113 / me=umh / subme=8 / psy=1 / psy_rd=1.00:0.00 / mixed_ref=1 / me_range=16 / chroma_me=1 / trellis=1 / 8x8dct=1 / cqm=0 / deadzone=21,11 / fast_pskip=1 / chroma_qp_offset=-2 / threads=17 / lookahead_threads=2 / sliced_threads=0 / nr=0 / decimate=1 / interlaced=0 / bluray_compat=0 / constrained_intra=0 / bframes=3 / b_pyramid=2 / b_adapt=1 / b_bias=0 / direct=3 / weightb=1 / open_gop=0 / weightp=2 / keyint=250 / keyint_min=23 / scenecut=40 / intra_refresh=0 / rc_lookahead=50 / rc=2pass / mbtree=1 / bitrate=4742 / ratetol=1.0 / qcomp=0.60 / qpmin=0 / qpmax=69 / qpstep=4 / cplxblur=20.0 / qblur=0.5 / ip_ratio=1.40 / aq=1:1.00
Language : English
Default : Yes
Forced : No

Audio
ID : 2
Format : AC-3
Format/Info : Audio Coding 3
Commercial name : Dolby Digital
Codec ID : A_AC3
Duration : 1 h 56 min
Bit rate mode : Constant
Bit rate : 640 kb/s
Channel(s) : 6 channels
Channel layout : L R C LFE Ls Rs
Sampling rate : 48.0 kHz
Frame rate : 31.250 FPS (1536 SPF)
Bit depth : 16 bits
Compression mode : Lossy
Stream size : 532 MiB (12%)
Language : English
Service kind : Complete Main
Default : Yes
Forced : No

Menu
00:00:00.000 : en:00:00:00.000
00:06:16.668 : en:00:06:16.668
00:11:19.679 : en:00:11:19.679
00:16:13.097 : en:00:16:13.097
00:21:28.287 : en:00:21:28.287
00:27:04.540 : en:00:27:04.540
00:33:31.885 : en:00:33:31.885
00:38:55.083 : en:00:38:55.083
00:45:53.250 : en:00:45:53.250
00:48:17.061 : en:00:48:17.061
00:56:24.339 : en:00:56:24.339
01:03:47.490 : en:01:03:47.490
01:09:16.486 : en:01:09:16.486
01:14:17.078 : en:01:14:17.078
01:19:04.615 : en:01:19:04.615
01:24:10.587 : en:01:24:10.587
01:31:51.923 : en:01:31:51.923
01:36:00.588 : en:01:36:00.588
01:40:03.247 : en:01:40:03.247
01:46:51.947 : en:01:46:51.947






1 个附件(点击附件名进行下载) 售价 大小 下载 时间

0 金币 44.68K 34 次 1月前

#1楼
发帖时间:1月前   |   查看数:0   |   回复数:0
游客组
快速回复