zacao

[2007] [欧美] [喜剧] 美食总动员/五星级大鼠 Ratatouille.2007.2160p.BluRay.x264.8bit.SDR.TrueHD.7.1.Atmos-SWTYBLZ



帖子完整标题:美食总动员/五星级大鼠 Ratatouille.2007.2160p.BluRay.x264.8bit.SDR.TrueHD.7.1.Atmos-SWTYBLZ 16.77GB




◎译  名 美食总动员 / 五星级大鼠(港) / 小鼠大厨 / 料理鼠王(台) / 蔬菜杂烩
◎片  名 Ratatouille
◎年  代 2007
◎产  地 美国
◎类  别 喜剧 / 动画 / 奇幻
◎语  言 英语 / 法语
◎上映日期 2007-06-29(美国) / 2007-10-19(中国大陆)
◎IMDb评分 8.0/10 from 589266 users
◎IMDb链接 http://www.imdb.com/title/tt0382932
◎豆瓣评分 8.4/10 from 236163 users
◎豆瓣链接 https://movie.douban.com/subject/1793491/
◎片  长 111 分钟
◎导  演 Brad Bird / Jan Pinkava
◎编  剧 Brad Bird / Jan Pinkava
◎主  演 Patton Oswalt
      Peter O'Toole
      Brad Garrett
      Ian Holm
      Lou Romano
      Brian Dennehy
      Peter Sohn
      Janeane Garofalo


◎标  签 动画 | 美国 | 喜剧 | pixar | 动画片 | 美国电影 | 2007 | 皮克斯

◎简  介

  小老鼠雷米在嗅觉方面有着无与伦比的天赋,不想过与垃圾堆为伴的生活,心怀成为五星大厨的梦想。
  一个偶然的机会,他认识了古斯特餐厅的学徒林奎尼,这个倒霉的学徒生性害羞,在厨艺上更是没有什么天赋,并且遭到餐厅大厨的排挤,即将被解雇。这一人一鼠结成了奇特的联盟:雷米奉献自己极富创造力的大脑。操作林奎尼前台“表演”。
  在雷米的帮助下,林奎尼不但成为新的“天才厨师”,获得了美女同事的爱情,还挫败了大厨的阴谋,成为古斯特餐厅的合法继承人。突如起来的成功让林奎尼有些不知所措,想摆脱自己的傀儡身份,把雷米赶出了厨房。
  古斯特餐厅的成功,引起了苛刻的美食评论家科隆的注意,准备一尝林奎尼的手艺,重新为餐厅评定星级;而不甘失败的前大厨,蠢蠢欲动,想要找到林奎尼一夜成名的秘密。失去了雷米,林奎尼该如何面对这些问题……

◎获奖情况

  第80届奥斯卡金像奖(2008)
  最佳原创剧本(提名) 简·皮克瓦 / 布拉德·伯德
  最佳动画长片 布拉德·伯德
  最佳混音(提名) 兰迪·汤姆 / Doc Kane / 迈克尔·斯曼内科
  最佳音效剪辑(提名) 兰迪·汤姆 / 迈克尔·席维斯
  最佳原创配乐(提名) 迈克·吉亚奇诺

  第61届英国电影学院奖(2008)
  电影奖 最佳动画片 布拉德·伯德

  第35届动画安妮奖(2008)
  最佳动画长片
  最佳导演 布拉德·伯德
  最佳编剧 布拉德·伯德
  最佳配音 伊安·霍姆
  最佳配音(提名) 詹妮安·加罗法洛 / 帕顿·奥斯瓦尔特
  最佳配乐 迈克·吉亚奇诺
  最佳分镜 泰德·马托特
  最佳艺术指导 哈雷·杰斯普
  最佳动画角色(提名) Michal Makarewicz
  最佳角色设计 Carter Goodrich
  最佳动画效果(提名) Gary Bruins / Jon Reisch

  第8届美国电影学会奖(2007)
  年度佳片
Video
ID : 1
Format : AVC
Format/Info : Advanced Video Codec
Format profile : [email protected]
Format settings : CABAC / 7 Ref Frames
Format settings, CABAC : Yes
Format settings, Reference frames : 7 frames
Codec ID : V_MPEG4/ISO/AVC
Duration : 1 h 51 min
Bit rate : 13.4 Mb/s
Width : 3 840 pixels
Height : 1 606 pixels
Display aspect ratio : 2.40:1
Frame rate mode : Constant
Frame rate : 23.976 (24000/1001) FPS
Color space : YUV
Chroma subsampling : 4:2:0
Bit depth : 8 bits
Scan type : Progressive
Bits/(Pixel*Frame) : 0.091
Stream size : 10.4 GiB (62%)
Title : Ratatouille.2007.2160p.BluRay.x264.8bit.SDR.TrueHD.7.1.Atmos-SWTYBLZ
Writing library : x264 core 157 r2935 545de2f
Encoding settings : cabac=1 / ref=7 / deblock=1:1:1 / analyse=0x3:0x113 / me=umh / subme=10 / psy=1 / psy_rd=0.40:0.00 / mixed_ref=1 / me_range=48 / chroma_me=1 / trellis=2 / 8x8dct=1 / cqm=0 / deadzone=21,11 / fast_pskip=1 / chroma_qp_offset=-2 / threads=48 / lookahead_threads=5 / sliced_threads=0 / nr=0 / decimate=0 / interlaced=0 / bluray_compat=0 / constrained_intra=0 / bframes=5 / b_pyramid=2 / b_adapt=2 / b_bias=0 / direct=3 / weightb=1 / open_gop=0 / weightp=2 / keyint=250 / keyint_min=23 / scenecut=40 / intra_refresh=0 / rc_lookahead=50 / rc=crf / mbtree=1 / crf=14.0 / qcomp=0.60 / qpmin=0 / qpmax=69 / qpstep=4 / ip_ratio=1.40 / aq=1:0.60
Default : Yes
Forced : No

Audio #1
ID : 2
Format : MLP FBA 16-ch
Format/Info : Meridian Lossless Packing FBA with 16-channel presentation
Commercial name : Dolby TrueHD with Dolby Atmos
Codec ID : A_TRUEHD
Duration : 1 h 51 min
Bit rate mode : Variable
Bit rate : 7 350 kb/s
Maximum bit rate : 6 972 kb/s
Channel(s) : 8 channels
Channel layout : L R C LFE Ls Rs Lb Rb
Sampling rate : 48.0 kHz
Frame rate : 1 200.000 FPS (40 SPF)
Compression mode : Lossless
Stream size : 5.70 GiB (34%)
Title : Ratatouille.2007.2160p.BluRay.x264.8bit.SDR.TrueHD.7.1.Atmos-SWTYBLZ
Language : English
Default : Yes
Forced : No
Number of dynamic objects : 13
Bed channel count : 1 channel
Bed channel configuration : LFE

Audio #2
ID : 3
Format : AC-3
Format/Info : Audio Coding 3
Commercial name : Dolby Digital
Codec ID : A_AC3
Duration : 1 h 51 min
Bit rate mode : Constant
Bit rate : 640 kb/s
Channel(s) : 6 channels
Channel layout : L R C LFE Ls Rs
Sampling rate : 48.0 kHz
Frame rate : 31.250 FPS (1536 SPF)
Bit depth : 16 bits
Compression mode : Lossy
Stream size : 509 MiB (3%)
Title : Ratatouille.2007.2160p.BluRay.x264.8bit.SDR.TrueHD.7.1.Atmos-SWTYBLZ
Language : English
Service kind : Complete Main
Default : No
Forced : No

Text #1
ID : 4
Format : UTF-8
Codec ID : S_TEXT/UTF8
Codec ID/Info : UTF-8 Plain Text
Duration : 1 h 42 min
Bit rate : 64 b/s
Count of elements : 1328
Stream size : 48.3 KiB (0%)
Title : English-SRT
Language : English
Default : Yes
Forced : No

Text #2
ID : 5
Format : PGS
Muxing mode : zlib
Codec ID : S_HDMV/PGS
Codec ID/Info : Picture based subtitle format used on BDs/HD-DVDs
Duration : 1 h 42 min
Bit rate : 45.2 kb/s
Count of elements : 3180
Stream size : 33.0 MiB (0%)
Title : English-PGS
Language : English
Default : No
Forced : No

Text #3
ID : 6
Format : PGS
Muxing mode : zlib
Codec ID : S_HDMV/PGS
Codec ID/Info : Picture based subtitle format used on BDs/HD-DVDs
Duration : 1 h 42 min
Bit rate : 39.8 kb/s
Count of elements : 2600
Stream size : 29.0 MiB (0%)
Title : French-PGS
Language : French
Default : No
Forced : No

Text #4
ID : 7
Format : PGS
Muxing mode : zlib
Codec ID : S_HDMV/PGS
Codec ID/Info : Picture based subtitle format used on BDs/HD-DVDs
Duration : 1 h 42 min
Bit rate : 39.2 kb/s
Count of elements : 2604
Stream size : 28.6 MiB (0%)
Title : Spanish-PGS
Language : Spanish
Default : No
Forced : No

Menu
00:00:00.000 : en:Chapter 01
00:01:16.701 : en:Chapter 02
00:06:30.223 : en:Chapter 03
00:09:23.729 : en:Chapter 04
00:10:58.532 : en:Chapter 05
00:13:31.519 : en:Chapter 06
00:17:40.851 : en:Chapter 07
00:19:38.343 : en:Chapter 08
00:24:49.154 : en:Chapter 09
00:28:56.067 : en:Chapter 10
00:33:05.775 : en:Chapter 11
00:38:14.250 : en:Chapter 12
00:40:33.722 : en:Chapter 13
00:44:12.066 : en:Chapter 14
00:47:00.108 : en:Chapter 15
00:51:28.502 : en:Chapter 16
00:57:03.002 : en:Chapter 17
00:59:33.152 : en:Chapter 18
01:00:54.359 : en:Chapter 19
01:07:20.578 : en:Chapter 20
01:11:26.490 : en:Chapter 21
01:15:29.066 : en:Chapter 22
01:19:25.927 : en:Chapter 23
01:23:30.964 : en:Chapter 24
01:25:35.296 : en:Chapter 25
01:28:19.168 : en:Chapter 26
01:32:39.595 : en:Chapter 27
01:35:41.944 : en:Chapter 28
01:38:50.341 : en:Chapter 29
01:40:55.507 : en:Chapter 30
01:42:59.798 : en:Chapter 31






1 个附件(点击附件名进行下载) 售价 大小 下载 时间

0 金币 84.46K 32 次 1月前

#1楼
发帖时间:1月前   |   查看数:0   |   回复数:0
游客组
快速回复