bulaite

[BD-1080P] [2015] [欧美] [喜剧] 恐龙当家/善良的恐龙 The.Good.Dinosaur.2015.1080p.BluRay.x264.DTS-HD.MA.7.1-SWTYBLZ 10.62G



帖子完整标题:恐龙当家/善良的恐龙 The.Good.Dinosaur.2015.1080p.BluRay.x264.DTS-HD.MA.7.1-SWTYBLZ 10.62GB




◎译  名 恐龙当家 / 善良的恐龙 / 恐龙大时代(港) / 恐龙管家 / 美好的恐龙世界
◎片  名 The Good Dinosaur
◎年  代 2015
◎产  地 美国
◎类  别 喜剧 / 动画 / 家庭 / 冒险
◎语  言 英语
◎上映日期 2015-11-25(美国)
◎IMDb评分 6.7/10 from 92908 users
◎IMDb链接 http://www.imdb.com/title/tt1979388
◎豆瓣评分 7.3/10 from 36588 users
◎豆瓣链接 https://movie.douban.com/subject/6875863/
◎片  长 93分钟
◎导  演 彼得·孙 Peter Sohn
◎编  剧 鲍勃·彼德森 Bob Peterson / 彼得·孙 Peter Sohn / 埃里克·本森 Erik Benson / 梅格·勒福夫 Meg LeFauve / 凯尔西·曼 Kelsey Mann / 彼得·赫奇斯 Peter Hedges / 阿德里安·莫利纳 Adrian Molina
◎主  演 雷蒙德·奥乔亚 Raymond Ochoa
      杰克·布赖特 Jack Bright
      杰弗里·怀特 Jeffrey Wright
      史蒂夫·茨恩 Steve Zahn
      A·J·巴克利 A.J. Buckley
      安娜·帕奎因 Anna Paquin
      山姆·艾里奥特 Sam Elliott
      弗兰西斯·麦克多蒙德 Frances McDormand
      马库斯·斯克里布纳 Marcus Scribner
      彼得·索恩 Peter Sohn


◎标  签 动画 | 美国 | 皮克斯 | 成长 | 迪士尼 | 冒险 | Pixar | 2015

◎简  介

  6500万年前,一颗小行星与地球擦肩而过,称霸这个世界的恐龙懵懵懂懂地逃过了灭顶之灾。之后又过了数百万年,恐龙的智力得到进化,它们学会种植、畜牧、建筑,并且拥有属于自己的语言和家庭。某座山脚下的平原地带,雷龙一家迎来三个性格各异的娃娃,最小的阿洛(雷蒙德·奥乔亚 Ray mond Ochoa 配音)孱弱胆怯,与父亲的生离死别更在他的心中投下难以磨灭的阴影。一连串的事件过后,他与妈妈、哥哥、姐姐相隔万里。阿洛将这一切都归罪于原始人类的小孩点点(杰克·布赖特 Jack Bright 配音)。而点点似乎不为所动,他主动亲近阿洛,仿佛是一条忠诚勇敢的小狗。
  在充满坎坷和危险的回家之路上,阿洛与点点结伴而行,而这两个本不该碰面的恐龙和人类,将缔结超越了种族和时空的纯真友情……

◎获奖情况

  第73届金球奖(2016)
  电影类 最佳动画长片(提名)

  第43届动画安妮奖(2016)
  最佳动画长片(提名)
  最佳配乐(提名)
  最佳分镜(提名)
  最佳艺术指导(提名)
  最佳动画角色(提名)
  最佳角色设计(提名)
  最佳动画效果

  第27届美国制片人工会奖(2016)
  最佳动画片制片人奖(提名)

  第66届美国剪辑工会奖(2016)
  动画片最佳剪辑(提名)

  第14届美国视觉效果协会奖(2016)
  最佳动画电影视觉效果
  最佳动画电影CG动画角色(提名)
  最佳动画电影CG背景
  最佳动画电影模拟动画效果

  第21届美国评论家选择电影奖(2016)
  最佳动画片(提名)

  第19届美国在线影评人协会奖(2015)
  最佳动画片(提名)

  第2届豆瓣电影年度榜单(2015)
  评分最高的动画片(提名)
Video
ID : 1
Format : AVC
Format/Info : Advanced Video Codec
Format profile : [email protected]
Format settings : CABAC / 5 Ref Frames
Format settings, CABAC : Yes
Format settings, Reference frames : 5 frames
Codec ID : V_MPEG4/ISO/AVC
Duration : 1 h 33 min
Bit rate : 12.6 Mb/s
Width : 1 920 pixels
Height : 804 pixels
Display aspect ratio : 2.40:1
Frame rate mode : Constant
Frame rate : 23.976 (24000/1001) FPS
Color space : YUV
Chroma subsampling : 4:2:0
Bit depth : 8 bits
Scan type : Progressive
Bits/(Pixel*Frame) : 0.340
Stream size : 8.22 GiB (77%)
Title : The.Good.Dinosaur.2015.1080p.BluRay.x264.DTS-HD.MA.7.1-SWTYBLZ
Writing library : x264 core 157 r2935 545de2f
Encoding settings : cabac=1 / ref=5 / deblock=1:1:1 / analyse=0x3:0x133 / me=umh / subme=10 / psy=1 / psy_rd=0.40:0.00 / mixed_ref=1 / me_range=48 / chroma_me=1 / trellis=2 / 8x8dct=1 / cqm=0 / deadzone=21,11 / fast_pskip=1 / chroma_qp_offset=-2 / threads=25 / lookahead_threads=6 / sliced_threads=0 / nr=0 / decimate=0 / interlaced=0 / bluray_compat=0 / constrained_intra=0 / bframes=10 / b_pyramid=2 / b_adapt=2 / b_bias=0 / direct=3 / weightb=1 / open_gop=0 / weightp=2 / keyint=250 / keyint_min=23 / scenecut=40 / intra_refresh=0 / rc_lookahead=60 / rc=crf / mbtree=1 / crf=16.0 / qcomp=0.60 / qpmin=0 / qpmax=69 / qpstep=4 / ip_ratio=1.40 / aq=1:0.60
Default : Yes
Forced : No

Audio
ID : 2
Format : DTS XLL
Format/Info : Digital Theater Systems
Commercial name : DTS-HD Master Audio
Codec ID : A_DTS
Duration : 1 h 33 min
Bit rate mode : Variable
Bit rate : 3 642 kb/s
Channel(s) : 8 channels
Channel layout : C L R LFE Lb Rb Lss Rss
Sampling rate : 48.0 kHz
Frame rate : 93.750 FPS (512 SPF)
Bit depth : 24 bits
Compression mode : Lossless
Stream size : 2.38 GiB (22%)
Title : The.Good.Dinosaur.2015.1080p.BluRay.x264.DTS-HD.MA.7.1-SWTYBLZ
Language : English
Default : No
Forced : No

Text #1
ID : 3
Format : UTF-8
Codec ID : S_TEXT/UTF8
Codec ID/Info : UTF-8 Plain Text
Duration : 1 h 21 min
Bit rate : 24 b/s
Count of elements : 530
Stream size : 14.4 KiB (0%)
Title : English-SRT
Language : English
Default : Yes
Forced : No

Text #2
ID : 4
Format : PGS
Muxing mode : zlib
Codec ID : S_HDMV/PGS
Codec ID/Info : Picture based subtitle format used on BDs/HD-DVDs
Duration : 1 h 23 min
Bit rate : 22.9 kb/s
Count of elements : 1770
Stream size : 13.7 MiB (0%)
Title : English-PGS
Language : English
Default : No
Forced : No

Text #3
ID : 5
Format : PGS
Muxing mode : zlib
Codec ID : S_HDMV/PGS
Codec ID/Info : Picture based subtitle format used on BDs/HD-DVDs
Duration : 1 h 24 min
Bit rate : 14.8 kb/s
Count of elements : 960
Stream size : 8.90 MiB (0%)
Title : French-PGS
Language : French
Default : No
Forced : No

Text #4
ID : 6
Format : PGS
Muxing mode : zlib
Codec ID : S_HDMV/PGS
Codec ID/Info : Picture based subtitle format used on BDs/HD-DVDs
Duration : 1 h 24 min
Bit rate : 14.3 kb/s
Count of elements : 954
Stream size : 8.57 MiB (0%)
Title : Spanish-PGS
Language : Spanish
Default : No
Forced : No

Menu
00:00:00.000 : en:Chapter 01
00:03:37.926 : en:Chapter 02
00:06:16.459 : en:Chapter 03
00:08:14.160 : en:Chapter 04
00:12:12.606 : en:Chapter 05
00:14:33.914 : en:Chapter 06
00:17:42.102 : en:Chapter 07
00:21:10.644 : en:Chapter 08
00:22:58.168 : en:Chapter 09
00:26:41.057 : en:Chapter 10
00:29:02.615 : en:Chapter 11
00:33:10.071 : en:Chapter 12
00:35:28.668 : en:Chapter 13
00:38:14.417 : en:Chapter 14
00:41:08.841 : en:Chapter 15
00:45:42.948 : en:Chapter 16
00:47:47.948 : en:Chapter 17
00:51:48.271 : en:Chapter 18
00:55:46.968 : en:Chapter 19
01:00:22.952 : en:Chapter 20
01:03:59.001 : en:Chapter 21
01:05:27.214 : en:Chapter 22
01:07:11.777 : en:Chapter 23
01:11:06.428 : en:Chapter 24
01:13:43.377 : en:Chapter 25
01:16:01.306 : en:Chapter 26
01:19:08.118 : en:Chapter 27
01:23:56.698 : en:Chapter 28
01:26:00.780 : en:Chapter 29






1 个附件(点击附件名进行下载) 售价 大小 下载 时间

0 金币 53.63K 36 次 9天前

#1楼
发帖时间:9天前   |   查看数:0   |   回复数:0
游客组
快速回复