linxiang

[BD-1080P] [2016] [其他] [剧情] 超能太阳鸭 Quackerz.2016.1080p.BluRay.x264-ROVERS 4.37GB



帖子完整标题:超能太阳鸭 Quackerz.2016.1080p.BluRay.x264-ROVERS 4.37GB




◎译  名 超能太阳鸭 / Quackerz / Sun Duck / 鸭尊宝
◎片  名 Крякнутые каникулы
◎年  代 2016
◎产  地 俄罗斯 / 美国 / 中国大陆
◎类  别 剧情 / 喜剧 / 动画
◎语  言 俄语 / 英语 / 汉语普通话
◎上映日期 2016-02-14(俄罗斯) / 2016-07-15(中国大陆) / 2018-04-13(中国大陆重映)
◎IMDb评分 4.4/10 from 424 users
◎IMDb链接 http://www.imdb.com/title/tt3723780
◎豆瓣评分 4.9/10 from 911 users
◎豆瓣链接 https://movie.douban.com/subject/26341315/
◎片  长 86分钟
◎导  演 维克多·拉基索夫 Viktor Lakisov
◎编  剧 鲍勃·安德伍德 Bob Underwood / 维克多·拉基索夫 Viktor Lakisov / 约翰·T·米克维奇 John T. Mickevich / 瓦季姆·斯韦什尼科夫 Vadim Sveshnikov / 弗谢沃洛德·佐林 Vsevolod Zorin
◎主  演 迈克尔·格罗斯 Michael Gross
      杰西·科尔蒂 Jesse Corti
      马克·戴卡洛 Mark DeCarlo
      恩·赖特尔 Enn Reitel
      罗比·戴蒙德 Robbie Daymond


◎标  签 动画 | 中国 | 2016 | 俄罗斯 | 喜剧 | 亲情 | 奇幻 | 爱情

◎简  介

  在遥远的东方世界,有一座与世无争的世外仙境“太阳岛”,岛主之子龙威是一个典型的“网瘾+废柴”少年,却整天做着展翅高飞,拯救世界的白日梦,因为根据古老的预言,当整个世界陷入邪恶黑暗的时候,太阳岛上的太阳鸭就会出现并带领大家对抗邪恶,保护每一寸土地都能照到阳光,滋润万物生长,不受到邪恶力量的威胁。多年后的某一天,绿头鸭军团意外来到太阳岛,东方鸭与绿头鸭之间的矛盾对抗打破了太阳岛长久以来的平静生活,意外的是身为太阳岛岛主之子的龙威与绿头鸭司令的女儿艾瑞卡,却在东方鸭、太阳鸭的高压对峙下陷入到了甜蜜恋爱之中,然而就在双方剑拔弩张战况愈演愈烈之际,那个被众人遗忘的“黑暗寓言”却在邪恶女巫婥特的布局下悄然发生……黑暗降临之际,曾经的“废柴+网瘾少年”的龙威能否突破宿命,成为拯救世界的鸭界超级英雄——太阳鸭呢?
Video
ID : 1
Format : AVC
Format/Info : Advanced Video Codec
Format profile : [email protected]
Format settings, CABAC : Yes
Format settings, ReFrames : 4 frames
Codec ID : V_MPEG4/ISO/AVC
Duration : 1h 22mn
Bit rate : 6 120 Kbps
Width : 1 920 pixels
Height : 1 080 pixels
Display aspect ratio : 16:9
Frame rate mode : Constant
Frame rate : 23.976 fps
Color space : YUV
Chroma subsampling : 4:2:0
Bit depth : 8 bits
Scan type : Progressive
Bits/(Pixel*Frame) : 0.123
Stream size : 3.51 GiB (80%)
Writing library : x264 core 148 r2692 64f4e24
Encoding settings : cabac=1 / ref=4 / deblock=1:0:0 / analyse=0x3:0x133 / me=umh / subme=7 / psy=1 / psy_rd=1.00:0.00 / mixed_ref=1 / me_range=16 / chroma_me=1 / trellis=1 / 8x8dct=1 / cqm=0 / deadzone=21,11 / fast_pskip=0 / chroma_qp_offset=-2 / threads=12 / lookahead_threads=2 / sliced_threads=0 / nr=0 / decimate=1 / interlaced=0 / bluray_compat=0 / constrained_intra=0 / bframes=3 / b_pyramid=2 / b_adapt=1 / b_bias=0 / direct=1 / weightb=1 / open_gop=0 / weightp=2 / keyint=250 / keyint_min=23 / scenecut=40 / intra_refresh=0 / rc_lookahead=40 / rc=2pass / mbtree=1 / bitrate=6120 / ratetol=1.0 / qcomp=0.60 / qpmin=0 / qpmax=69 / qpstep=4 / cplxblur=20.0 / qblur=0.5 / ip_ratio=1.40 / aq=1:1.00
Language : English
Default : Yes
Forced : No

Audio
ID : 2
Format : DTS
Format/Info : Digital Theater Systems
Mode : 16
Format settings, Endianness : Big
Codec ID : A_DTS
Duration : 1h 22mn
Bit rate mode : Constant
Bit rate : 1 509 Kbps
Channel(s) : 6 channels
Channel positions : Front: L C R, Side: L R, LFE
Sampling rate : 48.0 KHz
Frame rate : 93.750 fps (512 spf)
Bit depth : 24 bits
Compression mode : Lossy
Stream size : 885 MiB (20%)
Language : English
Default : Yes
Forced : No

Menu
00:00:00.000 : en:00:00:00.000
00:10:02.352 : en:00:10:02.352
00:19:13.611 : en:00:19:13.611
00:27:45.163 : en:00:27:45.163
00:37:12.689 : en:00:37:12.689
00:43:12.840 : en:00:43:12.840
00:53:27.746 : en:00:53:27.746
01:01:31.396 : en:01:01:31.396
01:08:48.333 : en:01:08:48.333
01:16:37.092 : en:01:16:37.092






1 个附件(点击附件名进行下载) 售价 大小 下载 时间

0 金币 175.75K 32 次 1月前

#1楼
发帖时间:1月前   |   查看数:0   |   回复数:0
游客组
快速回复