tianji

[WEB-720P] [2016] [欧美] [剧情] 你只需要爱? Love.Is.All.You.Need.2016.FESTIVAL.720p.WEBRip.x264-ASSOCiATE 1.69GB



帖子完整标题:你只需要爱? Love.Is.All.You.Need.2016.FESTIVAL.720p.WEBRip.x264-ASSOCiATE 1.69GB




◎译  名 你只需要爱?
◎片  名 Love Is All You Need?
◎年  代 2016
◎产  地 美国
◎类  别 剧情 / 同性 / 奇幻
◎语  言 英语
◎上映日期 2016-03-05(影探电影节)
◎IMDb评分 6.3/10 from 775 users
◎IMDb链接 http://www.imdb.com/title/tt2259122
◎豆瓣评分 6.8/10 from 56 users
◎豆瓣链接 https://movie.douban.com/subject/24738948/
◎片  长 121分钟
◎导  演 Kim Rocco Shields
◎编  剧 Kim Rocco Shields
◎主  演 布莱恩娜·伊维根 Briana Evigan
      泰勒·布莱克本 Tyler Blackburn
      凯拉·肯尼迪 Kyla Kenedy
      阿娜·奥缇兹 Ana Ortiz
      艾米丽·奥斯蒙特 Emily Osment
      伊丽莎白·霍尔姆 Elisabeth R?hm
      珍妮卡·贝尔格雷 Jenica Bergere
      凯瑟琳·拉·纳莎 Katherine LaNasa
      莱昂纳德·罗伯茨 Leonard Roberts
      杰瑞米·西斯托 Jeremy Sisto
      罗伯特·甘特 Robert Gant
      Tim Chiou
      Shawn Parsons
      Cleo Berry
      Malcolm M. Mays


◎标  签 美国 | 同性 | LGBT | 奇幻 | 剧情 | 2016 | 爱情 | 美国电影

◎简  介

  Based on the award winning critically acclaimed short film, "Love is All You Need?" is the theatrical feature length version that explores bullying, racism, and prejudice in a way never done before on the big screen. As you read this, a pre-teen or teen, in the United States has committed suicide. Teen suicide in the LGBT community has gained immense popularity on a larger social scale then ever before. While the interest in this social dilemma is thrust into the spotlight none have ever before addressed this social issue in such a manner as Kim Rocco Shields newest film. Love Is All You Need? thrusts its audience into another thought of existence that does more than just acknowledge there is a serious social problem affecting the gay community and does more than just talk about the issue. In Love Is All You Need? its audience lives the issue. Different people and their individual, unique lives intertwine and collide in a world confronted with controversy and forbidden love. This world is very much like our own: filled with family gatherings at church, kids playing in the yard and college frat parties. Except these families are led by same-sex couples, and homosexuality is the expectation. To be heterosexual is to be shunned and ridiculed because it means you are different. In this world, to be GAY is right and to be STRAIGHT is wrong. That's the world of Jude Klein, the star quarterback of the Sparta University football team. While celebrating her most recent win at the Phi Beta Lambda fraternity house party, Jude meets sports journalist Ryan Morris. The two quickly form a romantic bond that must be hidden from the rest of the world. The cold and cruel local priest Rachel Duncan discovers this secret affair, inspiring her to fervently organize a hateful campaign against the local "hetero". Meanwhile, 11-year-old Emily is often teased at her elementary school and is kicked off her school's football team. She finds comfort in her new friendship with Ian Santilli, one of her male classmates. Ashley begins to form a crush on her new playmate, despite how strongly her mother Karen is against being straight. These separate stories connect to each other in unexpected ways as each of them struggle with their own problems in this "gay" world. When you live in a world that hates the way you love, is really love all you need?
Video
ID : 1
Format : AVC
Format/Info : Advanced Video Codec
Format profile : [email protected]
Format settings : CABAC / 5 Ref Frames
Format settings, CABAC : Yes
Format settings, Reference frames : 5 frames
Codec ID : V_MPEG4/ISO/AVC
Duration : 1 h 59 min
Bit rate : 1 896 kb/s
Width : 1 280 pixels
Height : 534 pixels
Display aspect ratio : 2.40:1
Frame rate mode : Constant
Frame rate : 23.976 (24000/1001) FPS
Color space : YUV
Chroma subsampling : 4:2:0
Bit depth : 8 bits
Scan type : Progressive
Bits/(Pixel*Frame) : 0.116
Stream size : 1.58 GiB (94%)
Writing library : x264 core 158 r2984 3759fcb
Encoding settings : cabac=1 / ref=5 / deblock=1:-3:-3 / analyse=0x3:0x113 / me=hex / subme=8 / psy=1 / psy_rd=1.00:0.15 / mixed_ref=1 / me_range=16 / chroma_me=1 / trellis=2 / 8x8dct=1 / cqm=0 / deadzone=21,11 / fast_pskip=1 / chroma_qp_offset=-3 / threads=6 / lookahead_threads=1 / sliced_threads=0 / nr=0 / decimate=1 / interlaced=0 / bluray_compat=0 / constrained_intra=0 / bframes=3 / b_pyramid=2 / b_adapt=1 / b_bias=0 / direct=3 / weightb=1 / open_gop=0 / weightp=2 / keyint=250 / keyint_min=23 / scenecut=40 / intra_refresh=0 / rc_lookahead=50 / rc=crf / mbtree=1 / crf=18.0 / qcomp=0.60 / qpmin=0 / qpmax=69 / qpstep=4 / vbv_maxrate=17500 / vbv_bufsize=17500 / crf_max=0.0 / nal_hrd=none / filler=0 / ip_ratio=1.40 / aq=1:0.60
Default : Yes
Forced : No
Color range : Limited
Matrix coefficients : BT.709

Audio
ID : 2
Format : AAC LC
Format/Info : Advanced Audio Codec Low Complexity
Codec ID : A_AAC-2
Duration : 1 h 59 min
Bit rate : 126 kb/s
Channel(s) : 2 channels
Channel layout : L R
Sampling rate : 44.1 kHz
Frame rate : 43.066 FPS (1024 SPF)
Compression mode : Lossy
Stream size : 107 MiB (6%)
Language : English
Default : Yes
Forced : No

Text
ID : 3
Format : UTF-8
Codec ID : S_TEXT/UTF8
Codec ID/Info : UTF-8 Plain Text
Duration : 1 h 59 min
Bit rate : 76 b/s
Count of elements : 2583
Stream size : 67.0 KiB (0%)
Language : English
Default : No
Forced : No






1 个附件(点击附件名进行下载) 售价 大小 下载 时间

0 金币 17.64K 23 次 1月前

#1楼
发帖时间:1月前   |   查看数:0   |   回复数:0
游客组
快速回复