tianji

[BD-720P] [2016] [日本] [其他] 永不停歇之人:宫崎骏 Never-Ending.Man.Hayao.Miyazaki.2016.720p.BluRay.x264-HDEX 3.28GB



帖子完整标题:永不停歇之人:宫崎骏 Never-Ending.Man.Hayao.Miyazaki.2016.720p.BluRay.x264-HDEX 3.28GB




◎译  名 永不停歇之人:宫崎骏 / Never-Ending Man: Hayao Miyazaki / Owaranai hito: Miyazaki Hayao
◎片  名 終わらない人 宮崎駿
◎年  代 2016
◎产  地 日本
◎类  别 纪录片 / 传记
◎语  言 日语
◎上映日期 2016-11-13(日本) / 2018-12-14(美国)
◎IMDb评分 6.8/10 from 236 users
◎IMDb链接 http://www.imdb.com/title/tt6848624
◎豆瓣评分 0/10 from 0 users
◎豆瓣链接 https://movie.douban.com/subject/30395292/
◎片  长 70分钟
◎导  演 Kaku Arakawa
◎主  演 宫崎骏 Hayao Miyazaki
      铃木敏夫 Toshio Suzuki
      川上量生


◎标  签 宫崎骏 | 纪录片 | 日本 | 吉卜力 | nhk | 励志 | 2010s

◎简  介

  A look at famous Japanese animator Hayao Miyazaki following his retirement in 2013.
Video
ID : 1
Format : AVC
Format/Info : Advanced Video Codec
Format profile : [email protected]
Format settings : CABAC / 5 Ref Frames
Format settings, CABAC : Yes
Format settings, Reference frames : 5 frames
Codec ID : V_MPEG4/ISO/AVC
Duration : 1 h 10 min
Bit rate : 5 178 kb/s
Width : 1 280 pixels
Height : 720 pixels
Display aspect ratio : 16:9
Frame rate mode : Constant
Frame rate : 29.970 (30000/1001) FPS
Color space : YUV
Chroma subsampling : 4:2:0
Bit depth : 8 bits
Scan type : Progressive
Bits/(Pixel*Frame) : 0.187
Stream size : 2.54 GiB (77%)
Writing library : x264 core 157 r2969 d4099dd
Encoding settings : cabac=1 / ref=5 / deblock=1:0:0 / analyse=0x3:0x113 / me=umh / subme=8 / psy=1 / psy_rd=1.00:0.00 / mixed_ref=1 / me_range=16 / chroma_me=1 / trellis=1 / 8x8dct=1 / cqm=0 / deadzone=21,11 / fast_pskip=1 / chroma_qp_offset=-2 / threads=12 / lookahead_threads=2 / sliced_threads=0 / nr=0 / decimate=1 / interlaced=0 / bluray_compat=0 / constrained_intra=0 / bframes=3 / b_pyramid=2 / b_adapt=1 / b_bias=0 / direct=3 / weightb=1 / open_gop=0 / weightp=2 / keyint=240 / keyint_min=24 / scenecut=40 / intra_refresh=0 / rc_lookahead=50 / rc=2pass / mbtree=1 / bitrate=5178 / ratetol=1.0 / qcomp=0.60 / qpmin=0 / qpmax=69 / qpstep=4 / cplxblur=20.0 / qblur=0.5 / ip_ratio=1.40 / aq=1:1.00
Language : English
Default : Yes
Forced : No

Audio
ID : 2
Format : DTS
Format/Info : Digital Theater Systems
Codec ID : A_DTS
Duration : 1 h 10 min
Bit rate mode : Constant
Bit rate : 1 509 kb/s
Channel(s) : 2 channels
Channel layout : L R
Sampling rate : 48.0 kHz
Frame rate : 93.750 FPS (512 SPF)
Bit depth : 24 bits
Compression mode : Lossy
Stream size : 757 MiB (23%)
Title : Japanese
Language : Japanese
Default : Yes
Forced : No

Text
ID : 3
Format : UTF-8
Codec ID : S_TEXT/UTF8
Codec ID/Info : UTF-8 Plain Text
Duration : 1 h 9 min
Bit rate : 37 b/s
Count of elements : 677
Stream size : 19.0 KiB (0%)
Title : English
Language : English
Default : Yes
Forced : Yes

Menu
00:00:00.000 : :Hoofdstuk 01
00:03:23.703 : :Hoofdstuk 02
00:11:51.444 : :Hoofdstuk 03
00:17:03.689 : :Hoofdstuk 04
00:26:21.013 : :Hoofdstuk 05
00:37:33.384 : :Hoofdstuk 06
00:46:24.081 : :Hoofdstuk 07
00:54:33.203 : :Hoofdstuk 08
01:03:21.564 : :Hoofdstuk 09
01:09:39.075 : :Hoofdstuk 10






1 个附件(点击附件名进行下载) 售价 大小 下载 时间

0 金币 33.55K 22 次 1月前

#1楼
发帖时间:1月前   |   查看数:0   |   回复数:0
游客组
快速回复