linxiang

[WEB-1080P] [2016] [欧美] [科幻] 通往火星 Passage.to.Mars.2016.1080p.WEBRip.x264-RARBG 1.81GB



帖子完整标题:通往火星 Passage.to.Mars.2016.1080p.WEBRip.x264-RARBG 1.81GB




◎译  名 通往火星
◎片  名 Passage to Mars
◎年  代 2016
◎产  地 美国
◎类  别 科幻 / 冒险
◎语  言 英语
◎上映日期 2016-09-30(美国)
◎IMDb评分 4.7/10 from 639 users
◎IMDb链接 http://www.imdb.com/title/tt3190158
◎豆瓣评分 0/10 from 0 users
◎豆瓣链接 https://movie.douban.com/subject/26594197/
◎片  长 94分钟
◎导  演 Jean-Christophe Jeauffre
◎编  剧 Jean-Christophe Jeauffre / Pascal Lee
◎主  演 扎克瑞·昆图 Zachary Quinto
      夏洛特·兰普林 Charlotte Rampling
      Pascal Lee
      巴兹·奥德林 Buzz Aldrin
      John Schutt
      Jesse Weaver
      Jean-Christophe Jeauffre
      Joe Amarualik
      Mark Carroll


◎标  签 科幻 | 美国 | 纪录片 | 2016 | ZacharyQuinto | 火星 | 夏洛特·兰普林 | 虚妄

◎简  介

  The journals of a true NASA Arctic expedition unveils the adventure of a six-man crew's aboard an experimental vehicle designed to prepare the first human exploration of Mars. A voyage of fears and survival, hopes and dreams, through the beauties and the deadly dangers of two worlds: the High Arctic and Mars, a planet that might hide the secret of our origins.
Video
ID : 1
Format : AVC
Format/Info : Advanced Video Codec
Format profile : [email protected]
Format settings : CABAC / 4 Ref Frames
Format settings, CABAC : Yes
Format settings, Reference frames : 4 frames
Codec ID : avc1
Codec ID/Info : Advanced Video Coding
Duration : 1 h 34 min
Bit rate : 2 500 kb/s
Width : 1 920 pixels
Height : 1 080 pixels
Display aspect ratio : 16:9
Frame rate mode : Constant
Frame rate : 23.976 (23976/1000) FPS
Color space : YUV
Chroma subsampling : 4:2:0
Bit depth : 8 bits
Scan type : Progressive
Bits/(Pixel*Frame) : 0.050
Stream size : 1.66 GiB (92%)
Writing library : x264 core 152 r2851M ba24899
Encoding settings : cabac=1 / ref=4 / deblock=1:-1:-1 / analyse=0x3:0x113 / me=umh / subme=9 / psy=1 / psy_rd=1.00:0.15 / mixed_ref=1 / me_range=24 / chroma_me=1 / trellis=2 / 8x8dct=1 / cqm=0 / deadzone=21,11 / fast_pskip=1 / chroma_qp_offset=-3 / threads=16 / lookahead_threads=4 / sliced_threads=0 / nr=0 / decimate=1 / interlaced=0 / bluray_compat=0 / constrained_intra=0 / bframes=3 / b_pyramid=2 / b_adapt=2 / b_bias=0 / direct=3 / weightb=1 / open_gop=0 / weightp=2 / keyint=250 / keyint_min=25 / scenecut=40 / intra_refresh=0 / rc_lookahead=50 / rc=2pass / mbtree=1 / bitrate=2500 / ratetol=1.0 / qcomp=0.60 / qpmin=0 / qpmax=69 / qpstep=4 / cplxblur=20.0 / qblur=0.5 / vbv_maxrate=31250 / vbv_bufsize=31250 / nal_hrd=none / filler=0 / ip_ratio=1.40 / aq=3:1.00
Encoded date : UTC 2019-08-14 14:47:40
Tagged date : UTC 2019-08-14 14:47:40
Codec configuration box : avcC

Audio
ID : 2
Format : AAC LC
Format/Info : Advanced Audio Codec Low Complexity
Codec ID : mp4a-40-2
Duration : 1 h 34 min
Bit rate mode : Constant
Bit rate : 224 kb/s
Channel(s) : 6 channels
Channel layout : C L R Ls Rs LFE
Sampling rate : 48.0 kHz
Frame rate : 46.875 FPS (1024 SPF)
Compression mode : Lossy
Stream size : 152 MiB (8%)
Language : English
Default : Yes
Alternate group : 1
Encoded date : UTC 2019-08-14 14:47:40
Tagged date : UTC 2019-08-14 14:47:40






1 个附件(点击附件名进行下载) 售价 大小 下载 时间

0 金币 18.70K 48 次 1月前

#1楼
发帖时间:1月前   |   查看数:0   |   回复数:0
游客组
快速回复