qunide

[WEB-1080P] [2016] [韩国] [悬疑] 屠夫小姐.未删减.The Butcher's Lady.2016.KR.Nocut.WEB-DL.1920x1080p.x264.AAC-KOOK.[韩语中字]



屠夫小姐.未删减.The Butcher's Lady.2016.KR.Nocut.WEB-DL.1920x1080p.x264.AAC-KOOK.[韩语中字] 2.49GB

无广告,无水印

不定时做种,保证出种,请耐心等待.

※※※※※※※ 影片信息 ※※※※※※※


◎片   名 屠夫小姐

◎译   名 The Butcher's Lady

◎年   代 2017

◎国   家 韩国

◎类   别 悬疑 / 惊悚 / 犯罪

◎语   言 韩语

◎上映日 期 2017-07-11(韩国)

◎字   幕 简体字幕/繁体字幕

◎豆瓣 评分  5.6/10 from 2340 users

◎视频尺 寸  1920x1080p

◎片   长 1.18.46

◎导   演 纪吉雄

◎编   剧  崔元

◎主   演 金民俊 / 徐英 / 孙钟学 / 金海淑


#434


 

◎简  介



  电影《屠夫小姐 》讲述的是热血警察金刑警(金敏俊 饰)在与小区新开肉铺的老板顺爱(徐英 饰)相遇后,被卷入一连串杀人事件的故事。






※※※※※※※ 参数信息 ※※※※※※※




General

Unique ID                      : 177992364818822423713717501007908271449 (0x85E8152088D38156961BDF30D43F7559)


Format                         : Matroska

Format version                 : Version 4 / Version 2

File size                      : 2.49 GiB

Duration                       : 1h 48mn

Overall bit rate               : 3 280 Kbps

Movie name                     : KOOK

Encoded date                   : UTC 2019-08-10 02:31:12

Writing application            : mkvmerge v7.7.0 ('Six Voices') 32bit built on Feb 28 2015 23:23:00

Writing library                : libebml v1.3.1 + libmatroska v1.4.2


Video

ID                             : 1

Format                         : AVC

Format/Info                    : Advanced Video Codec

Format profile                 : [email protected]

Format settings, CABAC         : Yes

Format settings, ReFrames      : 4 frames

Codec ID                       : V_MPEG4/ISO/AVC

Duration                       : 1h 48mn

Bit rate                       : 3 100 Kbps

Width                          : 1 920 pixels

Height                         : 1 080 pixels

Display aspect ratio           : 16:9

Frame rate mode                : Constant

Frame rate                     : 29.970 (29970/1000) fps

Color space                    : YUV

Chroma subsampling             : 4:2:0

Bit depth                      : 8 bits

Scan type                      : Progressive

Bits/(Pixel*Frame)             : 0.050

Stream size                    : 2.35 GiB (95%)

Writing library                : x264 core 148 r2721+46 0c4b09a xiaowan [[email protected] X86_64]

Encoding settings              : cabac=1 / ref=4 / deblock=1:1:1 / analyse=0x3:0x133 / me=umh / subme=10 / psy=1 / fade_compensate=0.00 / psy_rd=0.30:0.00 / mixed_ref=1 / me_range=24 / chroma_me=1 / trellis=2 / 8x8dct=1 / cqm=0 / deadzone=21,11 / fast_pskip=1 / chroma_qp_offset=-2 / threads=12 / lookahead_threads=1 / sliced_threads=0 / nr=0 / decimate=1 / interlaced=0 / bluray_compat=0 / constrained_intra=0 / fgo=0 / bframes=3 / b_pyramid=2 / b_adapt=2 / b_bias=0 / direct=3 / weightb=1 / open_gop=0 / weightp=2 / keyint=300 / keyint_min=1 / scenecut=60 / intra_refresh=0 / rc_lookahead=60 / rc=2pass / mbtree=1 / bitrate=3100 / ratetol=1.0 / qcomp=0.50 / qpmin=0:0:0 / qpmax=69:69:69 / qpstep=4 / cplxblur=20.0 / qblur=0.5 / ip_ratio=1.40 / aq=2:0.80 / aq-sensitivity=10.00 / aq-factor=1.00:1.00:1.00 / aq2=0 / aq3=0

Default                        : Yes

Forced                         : No

Color range                    : Limited

Matrix coefficients            : BT.709


Audio

ID                             : 2

Format                         : AAC

Format/Info                    : Advanced Audio Codec

Format profile                 : LC

Codec ID                       : A_AAC

Duration                       : 1h 48mn

Bit rate                       : 177 Kbps

Channel(s)                     : 2 channels

Channel positions              : Front: L R

Sampling rate                  : 44.1 KHz

Frame rate                     : 43.066 fps (1024 spf)

Compression mode               : Lossy

Stream size                    : 138 MiB (5%)

Language                       : English

Default                        : Yes

Forced                         : No


Text #1

ID                             : 3

Format                         : ASS

Codec ID                       : S_TEXT/ASS

Codec ID/Info                  : Advanced Sub Station Alpha

Duration                       : 1h 46mn

Bit rate                       : 91 bps

Count of elements              : 1159

Compression mode               : Lossless

Stream size                    : 71.2 KiB (0%)

Title                          : 简体字幕

Language                       : Chinese

Default                        : Yes

Forced                         : No


Text #2

ID                             : 4

Format                         : ASS

Codec ID                       : S_TEXT/ASS

Codec ID/Info                  : Advanced Sub Station Alpha

Duration                       : 1h 46mn

Bit rate                       : 91 bps

Count of elements              : 1159

Compression mode               : Lossless

Stream size                    : 71.2 KiB (0%)

Title                          : 繁体字幕

Language                       : Chinese

Default                        : No

Forced                         : No




1 个附件(点击附件名进行下载) 售价 大小 下载 时间

0 金币 104.27K 78 次 1月前

#1楼
发帖时间:1月前   |   查看数:0   |   回复数:1
正大侠
哔哩BT有你,更精彩!
25天前 #2楼
游客组
快速回复