wenba

[BD-1080P] [2018] [其他] [剧情] 无主之作 Never.Look.Away.2018.GERMAN.1080p.BluRay.x264.DTS-WiKi 21.32GB



帖子完整标题:无主之作 Never.Look.Away.2018.GERMAN.1080p.BluRay.x264.DTS-WiKi 21.32GB




◎译  名 无主之作 / Never Look Away / Work Without Author
◎片  名 Werk ohne Autor
◎年  代 2018
◎产  地 德国 / 意大利
◎类  别 剧情
◎语  言 德语 / 俄语
◎上映日期 2018-09-04(威尼斯电影节) / 2018-10-03(德国)
◎IMDb评分 7.7/10 from 4104 users
◎IMDb链接 http://www.imdb.com/title/tt5311542
◎豆瓣评分 8.6/10 from 16779 users
◎豆瓣链接 https://movie.douban.com/subject/26701196/
◎片  长 189分钟
◎导  演 弗洛里安·亨克尔·冯·多纳斯马 Florian Henckel von Donnersmarck
◎编  剧 弗洛里安·亨克尔·冯·多纳斯马尔克 Florian Henckel von Donnersmarck
◎主  演 汤姆·希林 Tom Schilling
      塞巴斯蒂安·科赫 Sebastian Koch
      葆拉·贝尔 Paula Beer
      莎斯琪亚·罗森道尔 Saskia Rosendahl
      奥利弗·马苏奇 Oliver Masucci
      叶甫根尼·希迪金 Yevgeni Sidikhin
      马克·扎克 Mark Zak
      乌尔里克·C·扎勒 Ulrike C. Tscharre
      巴斯蒂安·特罗斯特 Bastian Trost
      汉斯-尤韦·鲍尔 Hans-Uwe Bauer
      汉诺·科夫勒 Hanno Koffler
      辛纳克·勋纳曼 Hinnerk Sch?nemann
      詹妮特·海因 Jeanette Hain
      乔切·舒托夫 J?rg Schüttauf
      约翰娜·加斯多夫 Johanna Gastdorf
      弗罗里安·巴西奥罗麦 Florian Bartholom?i
      本·贝克 Ben Becker


◎标  签 德国 | 剧情 | 艺术 | 传记 | 2018 | 历史 | 悬疑 | 艺术史

◎简  介

  该片由塞巴斯蒂安·科赫、汤姆·希林、葆拉·贝尔出演,源于真实事件,讲述艺术学生Kurt Barnert爱上了同学Ellie Seeband,Ellie的爸爸Carl Seeband却不喜欢他,但他们的命运仍被多年前一起可怕的罪行联系在了一起。事关Barnert的身世:他是从东德逃往西德……

◎获奖情况

  第91届奥斯卡金像奖(2019)
  最佳外语片(提名)
  最佳摄影(提名) 凯莱布·德夏奈尔

  第75届威尼斯电影节(2018)
  主竞赛单元 金狮奖 (提名) 弗洛里安·亨克尔·冯·多纳斯马尔克

  第76届金球奖(2019)
  电影类 最佳外语片(提名)

  第66届美国音效剪辑协会奖(2019)
  金卷轴奖 最佳外语片音效剪辑(提名)



Video
ID : 1
Format : AVC
Format/Info : Advanced Video Codec
Format profile : [email protected]
Format settings : CABAC / 4 Ref Frames
Format settings, CABAC : Yes
Format settings, ReFrames : 4 frames
Codec ID : V_MPEG4/ISO/AVC
Duration : 3 h 9 min
Bit rate : 14.6 Mb/s
Width : 1 920 pixels
Height : 1 036 pixels
Display aspect ratio : 1.85:1
Frame rate mode : Constant
Frame rate : 23.976 (24000/1001) FPS
Color space : YUV
Chroma subsampling : 4:2:0
Bit depth : 8 bits
Scan type : Progressive
Bits/(Pixel*Frame) : 0.306
Stream size : 19.3 GiB (90%)
Writing library : x264 core 130 r2273 b3065e6
Encoding settings : cabac=1 / ref=4 / deblock=1:-3:-3 / analyse=0x3:0x113 / me=umh / subme=11 / psy=1 / psy_rd=1.00:0.00 / mixed_ref=1 / me_range=32 / chroma_me=1 / trellis=2 / 8x8dct=1 / cqm=0 / deadzone=21,11 / fast_pskip=0 / chroma_qp_offset=-4 / threads=12 / lookahead_threads=2 / sliced_threads=0 / nr=0 / decimate=0 / interlaced=0 / bluray_compat=0 / constrained_intra=0 / bframes=8 / b_pyramid=2 / b_adapt=2 / b_bias=0 / direct=3 / weightb=1 / open_gop=0 / weightp=2 / keyint=250 / keyint_min=23 / scenecut=40 / intra_refresh=0 / rc=2pass / mbtree=0 / bitrate=14600 / ratetol=1.0 / qcomp=0.60 / qpmin=0 / qpmax=69 / qpstep=4 / cplxblur=20.0 / qblur=0.5 / ip_ratio=1.40 / pb_ratio=1.30 / aq=1:0.85
Language : English
Default : Yes
Forced : No

Audio
ID : 2
Format : DTS
Format/Info : Digital Theater Systems
Codec ID : A_DTS
Duration : 3 h 9 min
Bit rate mode : Constant
Bit rate : 1 509 kb/s
Channel(s) : 6 channels
Channel layout : C L R Ls Rs LFE
Sampling rate : 48.0 kHz
Frame rate : 93.750 FPS (512 SPF)
Bit depth : 24 bits
Compression mode : Lossy
Stream size : 1.99 GiB (9%)
Language : German
Default : Yes
Forced : No

Text
ID : 3
Format : UTF-8
Codec ID : S_TEXT/UTF8
Codec ID/Info : UTF-8 Plain Text
Duration : 3 h 2 min
Bit rate : 35 b/s
Count of elements : 1474
Stream size : 47.4 KiB (0%)
Language : English
Default : Yes
Forced : No






1 个附件(点击附件名进行下载) 售价 大小 下载 时间

0 金币 53.85K 56 次 1月前

#1楼
发帖时间:1月前   |   查看数:0   |   回复数:0
游客组
快速回复