wenba

[BD-1080P] [2018] [欧美] [其他] 仙境 Wunderland.2018.EXTENDED.1080p.BluRay.x264-CAPRiCORN 8.74GB



帖子完整标题:仙境 Wunderland.2018.EXTENDED.1080p.BluRay.x264-CAPRiCORN 8.74GB




◎译  名 仙境 / Battle of the Bulge: Wunderland / 突出部之役
◎片  名 Wunderland
◎年  代 2018
◎产  地 美国
◎类  别 历史 / 战争
◎语  言 英语
◎上映日期 2018-02-19(美国)
◎IMDb评分 3.6/10 from 599 users
◎IMDb链接 http://www.imdb.com/title/tt5815078
◎豆瓣评分 0/10 from 0 users
◎豆瓣链接 https://movie.douban.com/subject/27073202/
◎片  长 85分钟
◎导  演 Steven Luke
◎主  演 汤姆·贝伦杰 Tom Berenger
      Steven Luke


◎标  签 二战 | 战争 | 美国 | 美电影 | 2018 | 无聊 | 动作 | 烂片

◎简  介

  突出部之役,发生于1944年12月16日到1945年1月25日,是指纳粹德国于二战末期在欧洲西线战场比利时瓦隆的亚尔丁地区发动的攻势。此次战役与一些次作战协调进行,其中包括地板行动和狮鹫行动等

Video
ID : 1
Format : AVC
Format/Info : Advanced Video Codec
Format profile : [email protected]
Format settings : CABAC / 5 Ref Frames
Format settings, CABAC : Yes
Format settings, ReFrames : 5 frames
Codec ID : V_MPEG4/ISO/AVC
Duration : 1 h 35 min
Bit rate : 11.6 Mb/s
Width : 1 920 pixels
Height : 808 pixels
Display aspect ratio : 2.40:1
Frame rate mode : Constant
Frame rate : 23.976 (24000/1001) FPS
Color space : YUV
Chroma subsampling : 4:2:0
Bit depth : 8 bits
Scan type : Progressive
Bits/(Pixel*Frame) : 0.313
Stream size : 7.73 GiB (89%)
Writing library : x264 core 157 r2970 5493be8
Encoding settings : cabac=1 / ref=5 / deblock=1:0:0 / analyse=0x3:0x113 / me=umh / subme=7 / psy=1 / psy_rd=1.00:0.00 / mixed_ref=1 / me_range=16 / chroma_me=1 / trellis=1 / 8x8dct=1 / cqm=0 / deadzone=21,11 / fast_pskip=0 / chroma_qp_offset=-2 / threads=12 / lookahead_threads=2 / sliced_threads=0 / nr=0 / decimate=1 / interlaced=0 / bluray_compat=0 / constrained_intra=0 / bframes=3 / b_pyramid=2 / b_adapt=1 / b_bias=0 / direct=3 / weightb=1 / open_gop=0 / weightp=2 / keyint=240 / keyint_min=23 / scenecut=40 / intra_refresh=0 / rc_lookahead=50 / rc=2pass / mbtree=1 / bitrate=11645 / ratetol=1.0 / qcomp=0.60 / qpmin=0 / qpmax=69 / qpstep=4 / cplxblur=20.0 / qblur=0.5 / ip_ratio=1.40 / aq=1:1.00
Language : English
Default : Yes
Forced : No

Audio
ID : 2
Format : DTS
Format/Info : Digital Theater Systems
Codec ID : A_DTS
Duration : 1 h 35 min
Bit rate mode : Constant
Bit rate : 1 509 kb/s
Channel(s) : 6 channels
Channel layout : C L R Ls Rs LFE
Sampling rate : 48.0 kHz
Frame rate : 93.750 FPS (512 SPF)
Bit depth : 24 bits
Compression mode : Lossy
Stream size : 1.00 GiB (11%)
Language : English
Default : Yes
Forced : No

Text
ID : 3
Format : UTF-8
Codec ID : S_TEXT/UTF8
Codec ID/Info : UTF-8 Plain Text
Duration : 1 h 35 min
Bit rate : 33 b/s
Count of elements : 1065
Stream size : 23.4 KiB (0%)
Language : English
Default : No
Forced : No

Menu
00:00:00.000 : en:00:00:00.000
00:11:06.040 : en:00:11:06.040
00:21:44.303 : en:00:21:44.303
00:31:46.655 : en:00:31:46.655
00:45:06.412 : en:00:45:06.412
00:54:59.421 : en:00:54:59.421
01:09:24.285 : en:01:09:24.285
01:20:38.625 : en:01:20:38.625






1 个附件(点击附件名进行下载) 售价 大小 下载 时间

0 金币 44.24K 40 次 1月前

#1楼
发帖时间:1月前   |   查看数:0   |   回复数:0
游客组
快速回复