buzhidao

[WEB-1080P] [2018] [其他] [惊悚] 伊莎贝尔 Isabelle.2018.1080p.AMZN.WEBRip.DDP5.1.x264-NTG 2.88GB



帖子完整标题:伊莎贝尔 Isabelle.2018.1080p.AMZN.WEBRip.DDP5.1.x264-NTG 2.88GB




◎译  名 伊莎贝尔 / Isabelle
◎片  名 Isabelle
◎年  代 2018
◎产  地 加拿大
◎类  别 惊悚
◎语  言 英语
◎上映日期 2018-10-12(釜山电影节)
◎IMDb评分 6.0/10 from 77 users
◎IMDb链接 http://www.imdb.com/title/tt6098380
◎豆瓣评分 0/10 from 0 users
◎豆瓣链接 https://movie.douban.com/subject/26884360/
◎片  长 81分钟
◎导  演 Robert Heydon
◎编  剧 Donald Martin
◎主  演 达约·阿德 Dayo Ade
      沙妮丝·班顿 Shanice Banton
      克里斯塔·布里吉斯 Krista Bridges
      亚当·布罗迪 Adam Brody
      阿曼达·克鲁 Amanda Crew
      希拉·麦卡锡 Sheila McCarthy


◎标  签 美国电影 | 电影 | 惊悚 | PB-BusanC午夜激情单元 | BIFF备选 | BIFF | 2018

◎简  介

  A young couple′s dream of starting a family shatters as they descend into the depths of paranoia and must struggle to survive an evil presence that wants nothing more than their very own lives. Isabelleis a supernatural horror that is perfect for midnight audiences.

Video
ID : 1
Format : AVC
Format/Info : Advanced Video Codec
Format profile : [email protected]
Format settings : CABAC / 4 Ref Frames
Format settings, CABAC : Yes
Format settings, ReFrames : 4 frames
Codec ID : V_MPEG4/ISO/AVC
Duration : 1 h 20 min
Bit rate mode : Constant
Bit rate : 4 476 kb/s
Nominal bit rate : 10 000 kb/s
Width : 1 920 pixels
Height : 1 080 pixels
Display aspect ratio : 16:9
Frame rate mode : Constant
Frame rate : 23.976 (24000/1001) FPS
Color space : YUV
Chroma subsampling : 4:2:0
Bit depth : 8 bits
Scan type : Progressive
Bits/(Pixel*Frame) : 0.090
Stream size : 2.52 GiB (87%)
Default : Yes
Forced : No
Color range : Limited
Color primaries : BT.709
Transfer characteristics : BT.709
Matrix coefficients : BT.709

Audio
ID : 2
Format : E-AC-3
Format/Info : Enhanced AC-3
Commercial name : Dolby Digital Plus
Codec ID : A_EAC3
Duration : 1 h 20 min
Bit rate mode : Constant
Bit rate : 640 kb/s
Channel(s) : 6 channels
Channel layout : L R C LFE Ls Rs
Sampling rate : 48.0 kHz
Frame rate : 31.250 FPS (1536 SPF)
Compression mode : Lossy
Stream size : 368 MiB (13%)
Language : English
Service kind : Complete Main
Default : Yes
Forced : No

Text #1
ID : 3
Format : UTF-8
Codec ID : S_TEXT/UTF8
Codec ID/Info : UTF-8 Plain Text
Duration : 1 h 13 min
Bit rate : 41 b/s
Count of elements : 892
Stream size : 22.2 KiB (0%)
Language : English
Default : No
Forced : No

Text #2
ID : 4
Format : UTF-8
Codec ID : S_TEXT/UTF8
Codec ID/Info : UTF-8 Plain Text
Duration : 1 h 17 min
Bit rate : 46 b/s
Count of elements : 1102
Stream size : 26.4 KiB (0%)
Title : SDH
Language : English
Default : No
Forced : No






1 个附件(点击附件名进行下载) 售价 大小 下载 时间

0 金币 29.29K 31 次 4月前

#1楼
发帖时间:4月前   |   查看数:0   |   回复数:0
游客组
快速回复