jianpanshou

[WEB-720P] [2018] [欧美] [喜剧] 趣事 Funny.Story.2018.720p.AMZN.WEBRip.DDP5.1.x264-NTG 2.11GB



帖子完整标题:趣事 Funny.Story.2018.720p.AMZN.WEBRip.DDP5.1.x264-NTG 2.11GB




◎译  名 趣事
◎片  名 Funny Story
◎年  代 2018
◎产  地 美国
◎类  别 喜剧
◎语  言 英语
◎上映日期 2018-01-21(美国)
◎IMDb评分 7.2/10 from 93 users
◎IMDb链接 http://www.imdb.com/title/tt7422552
◎豆瓣评分 0/10 from 0 users
◎豆瓣链接 https://movie.douban.com/subject/30268674/
◎片  长 84分钟
◎导  演 迈克尔·J·格拉赫 Michael J. Gallagher
◎编  剧 史提夫·格林尼 Steve Greene
◎主  演 艾米莉·理查兹 Emily Bett Rickards
      贾纳·温特尼茨 Jana Winternitz
      马修·格拉夫 Matthew Glave
      Nikki Limo
      莉莉·霍利曼 Lily Holleman


◎简  介

  A tragic comedy about a well-intentioned father who inadvertently wreaks havoc on the life of his estranged daughter.

Video
ID : 1
Format : AVC
Format/Info : Advanced Video Codec
Format profile : [email protected]
Format settings : CABAC / 4 Ref Frames
Format settings, CABAC : Yes
Format settings, ReFrames : 4 frames
Codec ID : V_MPEG4/ISO/AVC
Duration : 1 h 24 min
Bit rate mode : Constant
Bit rate : 2 917 kb/s
Nominal bit rate : 6 000 kb/s
Width : 1 248 pixels
Height : 520 pixels
Display aspect ratio : 2.40:1
Frame rate mode : Constant
Frame rate : 23.976 (24000/1001) FPS
Color space : YUV
Chroma subsampling : 4:2:0
Bit depth : 8 bits
Scan type : Progressive
Bits/(Pixel*Frame) : 0.187
Stream size : 1.73 GiB (82%)
Default : Yes
Forced : No
Color range : Limited
Color primaries : BT.709
Transfer characteristics : BT.709
Matrix coefficients : BT.709

Audio
ID : 2
Format : E-AC-3
Format/Info : Enhanced AC-3
Commercial name : Dolby Digital Plus
Codec ID : A_EAC3
Duration : 1 h 24 min
Bit rate mode : Constant
Bit rate : 640 kb/s
Channel(s) : 6 channels
Channel layout : L R C LFE Ls Rs
Sampling rate : 48.0 kHz
Frame rate : 31.250 FPS (1536 SPF)
Compression mode : Lossy
Stream size : 388 MiB (18%)
Language : English
Service kind : Complete Main
Default : Yes
Forced : No

Text #1
ID : 3
Format : UTF-8
Codec ID : S_TEXT/UTF8
Codec ID/Info : UTF-8 Plain Text
Duration : 1 h 24 min
Bit rate : 65 b/s
Count of elements : 1341
Stream size : 40.2 KiB (0%)
Language : English
Default : No
Forced : No

Text #2
ID : 4
Format : UTF-8
Codec ID : S_TEXT/UTF8
Codec ID/Info : UTF-8 Plain Text
Duration : 1 h 24 min
Bit rate : 67 b/s
Count of elements : 1426
Stream size : 41.4 KiB (0%)
Title : SDH
Language : English
Default : No
Forced : No






1 个附件(点击附件名进行下载) 售价 大小 下载 时间

0 金币 21.61K 26 次 4月前

#1楼
发帖时间:4月前   |   查看数:0   |   回复数:0
游客组
快速回复