linxiang

[BD-1080P] [2018] [其他] [喜剧] 汽车威利 Wheely.2018.1080p.BluRay.x264-GUACAMOLE 5.47GB



帖子完整标题:汽车威利 Wheely.2018.1080p.BluRay.x264-GUACAMOLE 5.47GB




◎译  名 汽车威利 / Cesur Araba
◎片  名 Wheely
◎年  代 2018
◎产  地 马来西亚
◎类  别 喜剧 / 动画 / 家庭 / 冒险
◎语  言 英语
◎上映日期 2019-09-18(中国大陆)
◎IMDb评分 4.4/10 from 297 users
◎IMDb链接 http://www.imdb.com/title/tt6157970
◎豆瓣评分 0/10 from 0 users
◎豆瓣链接 https://movie.douban.com/subject/30415068/
◎导  演 Yusry Abd Halim
◎编  剧 Keith Brumpton / Yusry Abd Halim
◎主  演 Ogie Banks
      Gavin Yap
      Bill J. Gottlieb
      Brock Powell


◎标  签 动画 | 马来西亚 | 动画电影 | 迪士尼 | 皮克斯 | 梦工厂 | 宫崎骏 | 喜剧

◎简  介

  在一次严重的撞车事故后,惠里从一名新手车手降级为市区的一名出租车,身负巨额债务,自尊心也受到了伤害。这起事故的起因正是他的哲学/风水师范的好友普特普特。一切都很好,直到惠里“头朝下”压倒了来自社会上层的超级名模贝拉。更糟的是……她有男朋友了!幸运的是轮子的,贝拉发现他的街头智慧,ghetto-like,风趣的人性格吸引....但就在他有机会更好地了解她之前,她高傲的男朋友本挡住了他的路。这是并不是所有....惠里面临着一个更大的问题,他的梦中情人被一个由一辆18轮卡车策划的全球犯罪集团绑架。作者:Shireen M Hashim博士

Video
ID : 1
Format : AVC
Format/Info : Advanced Video Codec
Format profile : [email protected]
Format settings : CABAC / 4 Ref Frames
Format settings, CABAC : Yes
Format settings, ReFrames : 4 frames
Codec ID : V_MPEG4/ISO/AVC
Duration : 1 h 30 min
Bit rate : 7 172 kb/s
Width : 1 920 pixels
Height : 1 080 pixels
Display aspect ratio : 16:9
Frame rate mode : Constant
Frame rate : 24.000 FPS
Color space : YUV
Chroma subsampling : 4:2:0
Bit depth : 8 bits
Scan type : Progressive
Bits/(Pixel*Frame) : 0.144
Stream size : 4.52 GiB (83%)
Writing library : x264 core 157 r2969 d4099dd
Encoding settings : cabac=1 / ref=4 / deblock=1:0:0 / analyse=0x3:0x113 / me=umh / subme=8 / psy=1 / psy_rd=1.00:0.00 / mixed_ref=1 / me_range=16 / chroma_me=1 / trellis=2 / 8x8dct=1 / cqm=0 / deadzone=21,11 / fast_pskip=0 / chroma_qp_offset=-2 / threads=34 / lookahead_threads=5 / sliced_threads=0 / nr=0 / decimate=1 / interlaced=0 / bluray_compat=0 / constrained_intra=0 / bframes=3 / b_pyramid=2 / b_adapt=1 / b_bias=0 / direct=1 / weightb=1 / open_gop=0 / weightp=2 / keyint=250 / keyint_min=24 / scenecut=40 / intra_refresh=0 / rc_lookahead=50 / rc=2pass / mbtree=1 / bitrate=7172 / ratetol=1.0 / qcomp=0.60 / qpmin=0 / qpmax=69 / qpstep=4 / cplxblur=20.0 / qblur=0.5 / ip_ratio=1.40 / aq=1:1.00
Default : Yes
Forced : No

Audio
ID : 2
Format : DTS
Format/Info : Digital Theater Systems
Codec ID : A_DTS
Duration : 1 h 29 min
Bit rate mode : Constant
Bit rate : 1 509 kb/s
Channel(s) : 6 channels
Channel layout : C L R Ls Rs LFE
Sampling rate : 48.0 kHz
Frame rate : 93.750 FPS (512 SPF)
Bit depth : 24 bits
Compression mode : Lossy
Stream size : 970 MiB (17%)
Language : English
Default : No
Forced : No

Menu
00:00:00.000 : en:00:00:00.000
00:08:53.000 : en:00:08:53.000
00:15:26.375 : en:00:15:26.375
00:21:17.708 : en:00:21:17.708
00:28:27.208 : en:00:28:27.208
00:36:49.042 : en:00:36:49.042
00:45:39.500 : en:00:45:39.500
00:53:42.958 : en:00:53:42.958
01:00:29.500 : en:01:00:29.500
01:07:09.125 : en:01:07:09.125
01:18:10.000 : en:01:18:10.000
01:23:56.375 : en:01:23:56.375






1 个附件(点击附件名进行下载) 售价 大小 下载 时间

0 金币 27.96K 13 次 4月前

#1楼
发帖时间:4月前   |   查看数:0   |   回复数:0
游客组
快速回复