bulaite

[WEB-1080P] [2018] [欧美] [喜剧] 趣事 Funny.Story.2018.1080p.WEB-DL.DD5.1.H264-FGT 2.94GB



帖子完整标题:趣事 Funny.Story.2018.1080p.WEB-DL.DD5.1.H264-FGT 2.94GB




◎译  名 趣事
◎片  名 Funny Story
◎年  代 2018
◎产  地 美国
◎类  别 喜剧
◎语  言 英语
◎上映日期 2018-01-21(美国)
◎IMDb评分 7.2/10 from 93 users
◎IMDb链接 http://www.imdb.com/title/tt7422552
◎豆瓣评分 0/10 from 0 users
◎豆瓣链接 https://movie.douban.com/subject/30268674/
◎片  长 84分钟
◎导  演 迈克尔·J·格拉赫 Michael J. Gallagher
◎编  剧 史提夫·格林尼 Steve Greene
◎主  演 艾米莉·理查兹 Emily Bett Rickards
      贾纳·温特尼茨 Jana Winternitz
      马修·格拉夫 Matthew Glave
      Nikki Limo
      莉莉·霍利曼 Lily Holleman


◎简  介

  A tragic comedy about a well-intentioned father who inadvertently wreaks havoc on the life of his estranged daughter.

Video
ID : 1
Format : AVC
Format/Info : Advanced Video Codec
Format profile : [email protected]
Format settings : CABAC / 5 Ref Frames
Format settings, CABAC : Yes
Format settings, ReFrames : 5 frames
Codec ID : V_MPEG4/ISO/AVC
Duration : 1 h 24 min
Bit rate : 4 577 kb/s
Width : 1 912 pixels
Height : 792 pixels
Display aspect ratio : 2.40:1
Frame rate mode : Constant
Frame rate : 23.976 (24000/1001) FPS
Color space : YUV
Chroma subsampling : 4:2:0
Bit depth : 8 bits
Scan type : Progressive
Bits/(Pixel*Frame) : 0.126
Stream size : 2.71 GiB (92%)
Title : Funny.Story.2018.1080p.WEB-DL.DD5.1.H264-FGT
Language : English
Default : Yes
Forced : No
Color range : Limited
Color primaries : BT.709
Transfer characteristics : BT.709
Matrix coefficients : BT.709

Audio
ID : 2
Format : AC-3
Format/Info : Audio Coding 3
Commercial name : Dolby Digital
Codec ID : A_AC3
Duration : 1 h 24 min
Bit rate mode : Constant
Bit rate : 384 kb/s
Channel(s) : 6 channels
Channel layout : L R C LFE Ls Rs
Sampling rate : 48.0 kHz
Frame rate : 31.250 FPS (1536 SPF)
Bit depth : 16 bits
Compression mode : Lossy
Stream size : 233 MiB (8%)
Title : Funny.Story.2018.1080p.WEB-DL.DD5.1.H264-FGT
Language : English
Service kind : Complete Main
Default : Yes
Forced : No

Text
ID : 3
Format : UTF-8
Codec ID : S_TEXT/UTF8
Codec ID/Info : UTF-8 Plain Text
Duration : 1 h 24 min
Bit rate : 89 b/s
Count of elements : 1426
Stream size : 55.1 KiB (0%)
Language : English
Default : Yes
Forced : No

Menu
00:00:00.000 : en:1
00:03:22.000 : en:2
00:13:47.000 : en:3
00:24:58.000 : en:4
00:34:30.000 : en:5
00:42:08.000 : en:6
00:52:51.000 : en:7
01:00:12.000 : en:8
01:13:56.000 : en:9
01:20:20.000 : en:10






1 个附件(点击附件名进行下载) 售价 大小 下载 时间

0 金币 29.92K 18 次 4月前

#1楼
发帖时间:4月前   |   查看数:0   |   回复数:0
游客组
快速回复