shubao

[BD-1080P] [2018] [其他] [剧情] 遗孀秘闻 Greta.2018.1080p.BluRay.x264-GECKOS 7.66GB



帖子完整标题:遗孀秘闻 Greta.2018.1080p.BluRay.x264-GECKOS 7.66GB




◎译  名 遗孀秘闻 / The Widow / 侵密室友(台) / 友谊永锢(港) / 寡妇 / 格蕾塔
◎片  名 Greta
◎年  代 2018
◎产  地 爱尔兰 / 美国
◎类  别 剧情 / 悬疑
◎语  言 英语
◎上映日期 2018-09-07(多伦多电影节) / 2019-03-01(美国)
◎IMDb评分 6.1/10 from 7241 users
◎IMDb链接 http://www.imdb.com/title/tt2639336
◎豆瓣评分 6.1/10 from 1484 users
◎豆瓣链接 https://movie.douban.com/subject/24523813/
◎片  长 98分钟
◎导  演 尼尔·乔丹 Neil Jordan
◎编  剧 雷·赖特 Ray Wright / 尼尔·乔丹 Neil Jordan
◎主  演 伊莎贝尔·于佩尔 Isabelle Huppert
      科洛·莫瑞兹 Chlo? Grace Moretz
      麦卡·梦露 Maika Monroe
      简·佩里 Jane Perry
      杰夫·西勒 Jeff Hiller
      帕克·索耶 Parker Sawyers
      布兰登·李·西尔斯 Brandon Lee Sears
      阿瑟·李 Arthur Lee
      罗莎·埃斯科达 Rosa Escoda
      撒迪厄斯·丹尼尔斯 Thaddeus Daniels
      科鲁姆·费奥瑞 Colm Feore
      扎威·阿什顿 Zawe Ashton
      斯蒂芬·瑞 Stephen Rea


◎标  签 惊悚 | 悬疑 | 美国 | 恐怖 | 剧情 | 2019 | 2018 | 科洛·莫瑞兹

◎简  介

  该片讲述大学女生Frances归还某年长的寡妇(伊莎贝尔·于佩尔饰)丢失的钱包后,和她发展出一段意外的友情,但渐渐地,Frances发现这个寡妇身上隐藏着秘密,而且非常危险……

Video
ID : 1
Format : AVC
Format/Info : Advanced Video Codec
Format profile : [email protected]
Format settings : CABAC / 5 Ref Frames
Format settings, CABAC : Yes
Format settings, ReFrames : 5 frames
Codec ID : V_MPEG4/ISO/AVC
Duration : 1 h 38 min
Bit rate : 9 598 kb/s
Width : 1 920 pixels
Height : 808 pixels
Display aspect ratio : 2.40:1
Frame rate mode : Constant
Frame rate : 23.976 (24000/1001) FPS
Color space : YUV
Chroma subsampling : 4:2:0
Bit depth : 8 bits
Scan type : Progressive
Bits/(Pixel*Frame) : 0.258
Stream size : 6.61 GiB (86%)
Writing library : x264 core 157 r2970 5493be8
Encoding settings : cabac=1 / ref=5 / deblock=1:-3:-3 / analyse=0x3:0x113 / me=umh / subme=8 / psy=1 / psy_rd=1.00:0.00 / mixed_ref=1 / me_range=16 / chroma_me=1 / trellis=1 / 8x8dct=1 / cqm=0 / deadzone=21,11 / fast_pskip=1 / chroma_qp_offset=-2 / threads=25 / lookahead_threads=4 / sliced_threads=0 / nr=0 / decimate=1 / interlaced=0 / bluray_compat=0 / constrained_intra=0 / bframes=3 / b_pyramid=2 / b_adapt=1 / b_bias=0 / direct=3 / weightb=1 / open_gop=0 / weightp=2 / keyint=250 / keyint_min=23 / scenecut=40 / intra_refresh=0 / rc_lookahead=50 / rc=2pass / mbtree=1 / bitrate=9598 / ratetol=1.0 / qcomp=0.60 / qpmin=0 / qpmax=69 / qpstep=4 / cplxblur=20.0 / qblur=0.5 / ip_ratio=1.40 / aq=1:1.00
Language : English
Default : Yes
Forced : No

Audio
ID : 2
Format : DTS
Format/Info : Digital Theater Systems
Codec ID : A_DTS
Duration : 1 h 38 min
Bit rate mode : Constant
Bit rate : 1 509 kb/s
Channel(s) : 6 channels
Channel layout : C L R Ls Rs LFE
Sampling rate : 48.0 kHz
Frame rate : 93.750 FPS (512 SPF)
Bit depth : 24 bits
Compression mode : Lossy
Stream size : 1.04 GiB (14%)
Language : English
Default : Yes
Forced : No






1 个附件(点击附件名进行下载) 售价 大小 下载 时间

0 金币 39.11K 19 次 4月前

#1楼
发帖时间:4月前   |   查看数:0   |   回复数:0
游客组
快速回复