tianji

[BD-720P] [2018] [欧美] [恐怖] 血红岛屿/红岛 Red.Island.2018.720p.BluRay.x264-GUACAMOLE 3.28GB



帖子完整标题:血红岛屿/红岛 Red.Island.2018.720p.BluRay.x264-GUACAMOLE 3.28GB




◎译  名 血红岛屿 / 红岛
◎片  名 Red Island
◎年  代 2018
◎产  地 美国
◎类  别 恐怖
◎语  言 英语
◎上映日期 2018(02-12)
◎IMDb评分 3.5/10 from 96 users
◎IMDb链接 http://www.imdb.com/title/tt4965146
◎豆瓣评分 0/10 from 0 users
◎豆瓣链接 https://movie.douban.com/subject/33405501/
◎片  长 90分钟
◎导  演 Lux
◎编  剧 Lux
◎主  演 Alex Essoe
      Georgie DaburasTawny West
      See full cast & crew


◎标  签 悬疑 | 恐怖 | 2018

◎简  介

  一对夫妇被困在孤岛上,一股不可预见的力量找上了他们,而女人正在变得越来越脱离自己,她不再是自己了……

Video
ID : 1
Format : AVC
Format/Info : Advanced Video Codec
Format profile : [email protected]
Format settings : CABAC / 5 Ref Frames
Format settings, CABAC : Yes
Format settings, ReFrames : 5 frames
Codec ID : V_MPEG4/ISO/AVC
Duration : 1 h 20 min
Bit rate : 4 335 kb/s
Width : 1 280 pixels
Height : 544 pixels
Display aspect ratio : 2.35:1
Frame rate mode : Constant
Frame rate : 23.976 (24000/1001) FPS
Color space : YUV
Chroma subsampling : 4:2:0
Bit depth : 8 bits
Scan type : Progressive
Bits/(Pixel*Frame) : 0.260
Stream size : 2.43 GiB (74%)
Writing library : x264 core 157 r2969 d4099dd
Encoding settings : cabac=1 / ref=5 / deblock=1:0:0 / analyse=0x3:0x113 / me=umh / subme=8 / psy=1 / psy_rd=1.00:0.00 / mixed_ref=1 / me_range=16 / chroma_me=1 / trellis=2 / 8x8dct=1 / cqm=0 / deadzone=21,11 / fast_pskip=0 / chroma_qp_offset=-2 / threads=17 / lookahead_threads=2 / sliced_threads=0 / nr=0 / decimate=1 / interlaced=0 / bluray_compat=0 / constrained_intra=0 / bframes=3 / b_pyramid=2 / b_adapt=1 / b_bias=0 / direct=1 / weightb=1 / open_gop=0 / weightp=2 / keyint=250 / keyint_min=23 / scenecut=40 / intra_refresh=0 / rc_lookahead=50 / rc=2pass / mbtree=1 / bitrate=4335 / ratetol=1.0 / qcomp=0.60 / qpmin=0 / qpmax=69 / qpstep=4 / cplxblur=20.0 / qblur=0.5 / ip_ratio=1.40 / aq=1:1.00
Default : Yes
Forced : No

Audio
ID : 2
Format : DTS
Format/Info : Digital Theater Systems
Codec ID : A_DTS
Duration : 1 h 20 min
Bit rate mode : Constant
Bit rate : 1 509 kb/s
Channel(s) : 6 channels
Channel layout : C L R Ls Rs LFE
Sampling rate : 48.0 kHz
Frame rate : 93.750 FPS (512 SPF)
Bit depth : 24 bits
Compression mode : Lossy
Stream size : 867 MiB (26%)
Language : English
Default : No
Forced : No

Text
ID : 3
Format : UTF-8
Codec ID : S_TEXT/UTF8
Codec ID/Info : UTF-8 Plain Text
Duration : 6 s 497 ms
Bit rate : 78 b/s
Count of elements : 1
Stream size : 64.0 Bytes (0%)
Language : English
Default : Yes
Forced : Yes

Menu
00:00:00.000 : en:00:00:00.000
00:06:30.307 : en:00:06:30.307
00:11:42.243 : en:00:11:42.243
00:17:05.066 : en:00:17:05.066
00:22:07.618 : en:00:22:07.618
00:26:18.869 : en:00:26:18.869
00:30:31.496 : en:00:30:31.496
00:36:09.626 : en:00:36:09.626
00:43:44.080 : en:00:43:44.080
00:48:33.119 : en:00:48:33.119
00:53:14.483 : en:00:53:14.483
00:58:03.689 : en:00:58:03.689
01:03:19.254 : en:01:03:19.254
01:07:51.442 : en:01:07:51.442
01:14:50.945 : en:01:14:50.945
01:16:49.647 : en:01:16:49.647






1 个附件(点击附件名进行下载) 售价 大小 下载 时间

0 金币 33.39K 48 次 4月前

#1楼
发帖时间:4月前   |   查看数:0   |   回复数:0
游客组
快速回复