linxiang

[WEB-720P] [2018] [欧美] [剧情] 彩虹实验 The.Rainbow.Experiment.2018.FESTIVAL.720p.WEBRip.x264-ASSOCiATE 1.55GB



帖子完整标题:彩虹实验 The.Rainbow.Experiment.2018.FESTIVAL.720p.WEBRip.x264-ASSOCiATE 1.55GB




◎译  名 彩虹实验
◎片  名 The Rainbow Experiment
◎年  代 2018
◎产  地 美国
◎类  别 剧情
◎语  言 英语
◎上映日期 2018-01-20(美国)
◎IMDb评分 7.0/10 from 43 users
◎IMDb链接 http://www.imdb.com/title/tt5037684
◎豆瓣评分 7.1/10 from 65 users
◎豆瓣链接 https://movie.douban.com/subject/30251943/
◎片  长 129分钟
◎导  演 克里斯蒂娜·卡拉斯 Christina Kallas
◎编  剧 克里斯蒂娜·卡拉斯 Christina Kallas
◎主  演 克里斯蒂安·库尔森 Christian Coulson
      Keven Kane
      克里斯·比特姆 Chris Beetem


◎标  签 2018 | 美国 | first2018 | 美国电影 | 剧情 | First | 悬疑 | 克里斯蒂娜·卡拉斯

◎简  介

  在曼哈顿的一所高中发生了一场导致学生伤亡的严重实验事故后,事态开始回旋失控。谁该为事故负责、谁目击了整个事件,这些话题引爆了老师、家长和学校领导之间的激烈讨论,并最终影响到学生本身。

◎获奖情况

  第12届FIRST青年电影展(2018)
  竞赛 评委会大奖 - 长片类 (提名) 克里斯蒂娜·卡拉斯



Video
ID : 1
Format : AVC
Format/Info : Advanced Video Codec
Format profile : [email protected]
Format settings : CABAC / 5 Ref Frames
Format settings, CABAC : Yes
Format settings, ReFrames : 5 frames
Codec ID : V_MPEG4/ISO/AVC
Duration : 2 h 9 min
Bit rate : 1 577 kb/s
Width : 1 280 pixels
Height : 536 pixels
Display aspect ratio : 2.40:1
Frame rate mode : Constant
Frame rate : 23.976 (24000/1001) FPS
Color space : YUV
Chroma subsampling : 4:2:0
Bit depth : 8 bits
Scan type : Progressive
Bits/(Pixel*Frame) : 0.096
Stream size : 1.43 GiB (92%)
Writing library : x264 core 157 r2970 5493be8
Encoding settings : cabac=1 / ref=5 / deblock=1:-3:-3 / analyse=0x3:0x113 / me=hex / subme=8 / psy=1 / psy_rd=1.00:0.15 / mixed_ref=1 / me_range=16 / chroma_me=1 / trellis=2 / 8x8dct=1 / cqm=0 / deadzone=21,11 / fast_pskip=1 / chroma_qp_offset=-3 / threads=6 / lookahead_threads=1 / sliced_threads=0 / nr=0 / decimate=1 / interlaced=0 / bluray_compat=0 / constrained_intra=0 / bframes=3 / b_pyramid=2 / b_adapt=1 / b_bias=0 / direct=3 / weightb=1 / open_gop=0 / weightp=2 / keyint=250 / keyint_min=23 / scenecut=40 / intra_refresh=0 / rc_lookahead=50 / rc=crf / mbtree=1 / crf=18.0 / qcomp=0.60 / qpmin=0 / qpmax=69 / qpstep=4 / vbv_maxrate=17500 / vbv_bufsize=17500 / crf_max=0.0 / nal_hrd=none / filler=0 / ip_ratio=1.40 / aq=1:0.60
Default : Yes
Forced : No
Color range : Limited
Matrix coefficients : BT.709

Audio
ID : 2
Format : AAC LC
Format/Info : Advanced Audio Codec Low Complexity
Codec ID : A_AAC-2
Duration : 2 h 9 min
Bit rate : 126 kb/s
Channel(s) : 2 channels
Channel layout : L R
Sampling rate : 44.1 kHz
Frame rate : 43.066 FPS (1024 SPF)
Compression mode : Lossy
Stream size : 117 MiB (7%)
Language : English
Default : Yes
Forced : No

Text
ID : 3
Format : UTF-8
Codec ID : S_TEXT/UTF8
Codec ID/Info : UTF-8 Plain Text
Duration : 2 h 8 min
Bit rate : 97 b/s
Count of elements : 2922
Stream size : 91.8 KiB (0%)
Language : English
Default : No
Forced : No






1 个附件(点击附件名进行下载) 售价 大小 下载 时间

0 金币 16.26K 43 次 4月前

#1楼
发帖时间:4月前   |   查看数:0   |   回复数:0
游客组
快速回复