bulaite

[Remux] [2018] [欧美] [恐怖] 血红岛屿/红岛 Red.Island.2018.1080p.BluRay.REMUX.AVC.DTS-HD.MA.5.1-FGT 16.84GB



帖子完整标题:血红岛屿/红岛 Red.Island.2018.1080p.BluRay.REMUX.AVC.DTS-HD.MA.5.1-FGT 16.84GB




◎译  名 血红岛屿 / 红岛
◎片  名 Red Island
◎年  代 2018
◎产  地 美国
◎类  别 恐怖
◎语  言 英语
◎上映日期 2018(02-12)
◎IMDb评分 3.5/10 from 96 users
◎IMDb链接 http://www.imdb.com/title/tt4965146
◎豆瓣评分 0/10 from 0 users
◎豆瓣链接 https://movie.douban.com/subject/33405501/
◎片  长 90分钟
◎导  演 Lux
◎编  剧 Lux
◎主  演 Alex Essoe
      Georgie DaburasTawny West
      See full cast & crew


◎标  签 悬疑 | 恐怖 | 2018

◎简  介

  一对夫妇被困在孤岛上,一股不可预见的力量找上了他们,而女人正在变得越来越脱离自己,她不再是自己了……

Video
ID : 1
Format : AVC
Format/Info : Advanced Video Codec
Format profile : [email protected]
Format settings : CABAC / 3 Ref Frames
Format settings, CABAC : Yes
Format settings, ReFrames : 3 frames
Format settings, GOP : M=4, N=24
Codec ID : V_MPEG4/ISO/AVC
Duration : 1 h 20 min
Bit rate mode : Variable
Bit rate : 29.0 Mb/s
Maximum bit rate : 36.0 Mb/s
Width : 1 920 pixels
Height : 1 080 pixels
Display aspect ratio : 16:9
Frame rate mode : Constant
Frame rate : 23.976 (24000/1001) FPS
Standard : NTSC
Color space : YUV
Chroma subsampling : 4:2:0
Bit depth : 8 bits
Scan type : Progressive
Bits/(Pixel*Frame) : 0.583
Stream size : 15.8 GiB (94%)
Title : Red.Island.2018.1080p.BluRay.REMUX.AVC.DTS-HD.MA.5.1-FGT
Writing library : x264pro - Adobe CS Exporter Plug-in
Encoding settings : cabac=1 / ref=4 / deblock=1:-2:-2 / analyse=0x3:0x113 / me=umh / subme=9 / psy=1 / psy_rd=1.00:0.25 / mixed_ref=1 / me_range=16 / chroma_me=1 / trellis=1 / 8x8dct=1 / cqm=0 / deadzone=6,6 / fast_pskip=1 / chroma_qp_offset=-4 / threads=12 / lookahead_threads=2 / sliced_threads=0 / slices=4 / nr=0 / decimate=0 / interlaced=0 / bluray_compat=1 / constrained_intra=0 / bframes=3 / b_pyramid=1 / b_adapt=2 / b_bias=0 / direct=3 / weightb=1 / open_gop=0 / weightp=1 / keyint=24 / keyint_min=1 / scenecut=40 / intra_refresh=0 / rc_lookahead=24 / rc=abr / mbtree=1 / bitrate=29000 / ratetol=1.0 / qcomp=0.80 / qpmin=0 / qpmax=69 / qpstep=4 / vbv_maxrate=36000 / vbv_bufsize=30000 / nal_hrd=vbr / ip_ratio=1.10 / aq=1:0.05
Language : English
Default : No
Forced : No
Color range : Limited
Color primaries : BT.709
Transfer characteristics : BT.709
Matrix coefficients : BT.709

Audio
ID : 2
Format : DTS XLL
Format/Info : Digital Theater Systems
Commercial name : DTS-HD Master Audio
Codec ID : A_DTS
Duration : 1 h 20 min
Bit rate mode : Variable
Bit rate : 1 916 kb/s
Channel(s) : 6 channels
Channel layout : C L R Ls Rs LFE
Sampling rate : 48.0 kHz
Frame rate : 93.750 FPS (512 SPF)
Bit depth : 16 bits
Compression mode : Lossless
Stream size : 1.08 GiB (6%)
Title : Red.Island.2018.1080p.BluRay.REMUX.AVC.DTS-HD.MA.5.1-FGT
Language : English
Default : Yes
Forced : No

Menu
00:00:00.000 : en:Chapter 01
00:06:30.306 : en:Chapter 02
00:11:42.243 : en:Chapter 03
00:17:05.065 : en:Chapter 04
00:22:07.617 : en:Chapter 05
00:26:18.785 : en:Chapter 06
00:30:31.496 : en:Chapter 07
00:36:09.542 : en:Chapter 08
00:43:44.079 : en:Chapter 09
00:48:32.951 : en:Chapter 10
00:53:14.482 : en:Chapter 11
00:58:03.688 : en:Chapter 12
01:03:19.253 : en:Chapter 13
01:07:51.442 : en:Chapter 14
01:14:50.944 : en:Chapter 15
01:16:49.646 : en:Chapter 16






1 个附件(点击附件名进行下载) 售价 大小 下载 时间

0 金币 84.73K 15 次 1月前

#1楼
发帖时间:1月前   |   查看数:0   |   回复数:0
游客组
快速回复