shubao

[WEB-720P] [2018] [其他] [其他] 饥饿鬼岛/饿鬼岛 Island.of.the.Hungry.Ghosts.2018.720p.AMZN.WEBRip.DDP5.1.x264-BLUTONiUM



帖子完整标题:饥饿鬼岛/饿鬼岛 Island.of.the.Hungry.Ghosts.2018.720p.AMZN.WEBRip.DDP5.1.x264-BLUTONiUM 1.95GB




◎译  名 饥饿鬼岛 / 饿鬼岛
◎片  名 Island of the Hungry Ghosts
◎年  代 2018
◎产  地 德国 / 英国 / 澳大利亚
◎类  别 纪录片
◎语  言 英语 / 汉语普通话 / 法语
◎IMDb评分 7.3/10 from 206 users
◎IMDb链接 http://www.imdb.com/title/tt8106566
◎豆瓣评分 0/10 from 0 users
◎豆瓣链接 https://movie.douban.com/subject/30224183/
◎片  长 94分钟
◎导  演 Gabrielle Brady
◎编  剧 Gabrielle Brady

◎标  签 纪录片 | 澳大利亚 | 德国 | 2018 | 迁徙 | 超度 | 英国 | 移民

◎简  介

  Island of the Hungry Ghosts is a feature length documentary film set on the remote Christmas Island.
Poh Lin is a trauma counsellor living on the remote Christmas Island with her young family. Poh Lin’s job is to work with people trying to seek asylum to Australia who have been detained in a high security detention facility, deep within the islands jungle.
As Poh Lin and her family explore the island’s powerful and threatening landscape, a disquieting sensation grows. Local islanders carry out their ‘hungry ghost’ rituals for the spirits of those who died on the island without a proper burial. They make offerings to appease the lost souls, who are said to be wandering the jungles at night without a home.
In the intimacy of her therapy sessions, Poh Lin feels the oncoming dystopia, as the mental state of her clients begin to unravel.

◎获奖情况

  第21届英国独立电影奖(2018)
  最佳音乐(提名)



Video
ID : 1
Format : AVC
Format/Info : Advanced Video Codec
Format profile : [email protected]
Format settings : CABAC / 5 Ref Frames
Format settings, CABAC : Yes
Format settings, ReFrames : 5 frames
Codec ID : V_MPEG4/ISO/AVC
Duration : 1 h 34 min
Bit rate : 2 320 kb/s
Width : 1 280 pixels
Height : 544 pixels
Display aspect ratio : 2.35:1
Original display aspect ratio : 2.35:1
Frame rate mode : Constant
Frame rate : 25.000 FPS
Color space : YUV
Chroma subsampling : 4:2:0
Bit depth : 8 bits
Scan type : Progressive
Bits/(Pixel*Frame) : 0.133
Stream size : 1.53 GiB (78%)
Default : Yes
Forced : No
Color range : Limited
Color primaries : BT.709
Transfer characteristics : BT.709
Matrix coefficients : BT.709

Audio
ID : 2
Format : E-AC-3
Format/Info : Enhanced AC-3
Commercial name : Dolby Digital Plus
Codec ID : A_EAC3
Duration : 1 h 34 min
Bit rate mode : Constant
Bit rate : 640 kb/s
Channel(s) : 6 channels
Channel layout : L R C LFE Ls Rs
Sampling rate : 48.0 kHz
Frame rate : 31.250 FPS (1536 SPF)
Compression mode : Lossy
Stream size : 431 MiB (22%)
Title : English
Language : English
Service kind : Complete Main
Default : Yes
Forced : No

Text
ID : 3
Format : UTF-8
Codec ID : S_TEXT/UTF8
Codec ID/Info : UTF-8 Plain Text
Duration : 1 h 26 min
Bit rate : 28 b/s
Count of elements : 564
Stream size : 18.2 KiB (0%)
Title : English [SDH]
Language : English
Default : No
Forced : No






1 个附件(点击附件名进行下载) 售价 大小 下载 时间

0 金币 20.05K 42 次 4月前

#1楼
发帖时间:4月前   |   查看数:0   |   回复数:0
游客组
快速回复