zacao

[WEB-720P] [2018] [其他] 巅峰人生 Kilian.Jornet.Path.to.Everest.2018.720p.AMZN.WEBRip.DDP2.0.x264-BLUTONiUM 1



帖子完整标题:巅峰人生 Kilian.Jornet.Path.to.Everest.2018.720p.AMZN.WEBRip.DDP2.0.x264-BLUTONiUM 1.75GB




◎译  名 巅峰人生 / Everest
◎片  名 Kilian Jornet : Path to Everest
◎年  代 2018
◎产  地 西班牙
◎语  言 英语 / 西班牙语 / 法语
◎上映日期 2018-03-01(西班牙)
◎IMDb评分 7.8/10 from 131 users
◎IMDb链接 http://www.imdb.com/title/tt7042024
◎豆瓣评分 0/10 from 0 users
◎豆瓣链接 https://movie.douban.com/subject/30359930/
◎片  长 84分钟
◎导  演 Sèbastien Montaz-Rosset / Josep Serra
◎主  演 Kilian Jornet
      Sèbastien Montaz-Rosset
      Jordi Canals
      Jordi Tosas
      赖因霍尔德·梅斯纳 Reinhold Messner
      Núria Burgada Buron
      Bruno Brunod
      Stephane Brosse
      Emelie Forsberg
      Peter Habeler
      Vivian Bruchez
      Rubén Massarelli


◎标  签 户外 | k天王 | 西班牙 | 纪录片 | 微博来的

◎简  介

  世界最强的越野跑者基里安还小的时候,将世上许多高峻的山岭记录在笔记本里,期待长大后能够一一征服,当他完成了笔记本上的所有高山之后,在2017年五月,他开始了「巅峰人生」计画:不携带氧气筒、绳索且没有任何同伴的情况下,一周内连续攀登圣母峰两次。本片带领观众见证基里安传奇的生涯,也揭露了他不为人知的脆弱、恐惧和自我怀疑。

Video
ID : 1
Format : AVC
Format/Info : Advanced Video Codec
Format profile : [email protected]
Format settings : CABAC / 5 Ref Frames
Format settings, CABAC : Yes
Format settings, ReFrames : 5 frames
Codec ID : V_MPEG4/ISO/AVC
Duration : 1 h 24 min
Bit rate : 2 749 kb/s
Width : 1 280 pixels
Height : 720 pixels
Display aspect ratio : 16:9
Frame rate mode : Constant
Frame rate : 24.000 FPS
Color space : YUV
Chroma subsampling : 4:2:0
Bit depth : 8 bits
Scan type : Progressive
Bits/(Pixel*Frame) : 0.124
Stream size : 1.62 GiB (92%)
Default : Yes
Forced : No
Color range : Limited
Color primaries : BT.709
Transfer characteristics : BT.709
Matrix coefficients : BT.709

Audio
ID : 2
Format : E-AC-3
Format/Info : Enhanced AC-3
Commercial name : Dolby Digital Plus
Codec ID : A_EAC3
Duration : 1 h 24 min
Bit rate mode : Constant
Bit rate : 224 kb/s
Channel(s) : 2 channels
Channel layout : L R
Sampling rate : 48.0 kHz
Frame rate : 31.250 FPS (1536 SPF)
Compression mode : Lossy
Stream size : 135 MiB (8%)
Service kind : Complete Main
Default : No
Forced : No

Text
ID : 3
Format : UTF-8
Codec ID : S_TEXT/UTF8
Codec ID/Info : UTF-8 Plain Text
Duration : 1 h 23 min
Bit rate : 49 b/s
Count of elements : 747
Stream size : 29.9 KiB (0%)
Title : English [SDH]
Language : English
Default : No
Forced : No






1 个附件(点击附件名进行下载) 售价 大小 下载 时间

0 金币 18.07K 24 次 4月前

#1楼
发帖时间:4月前   |   查看数:0   |   回复数:0
游客组
快速回复