bulaite

[WEB-1080P] [2018] [其他] [剧情] 二凤 Furie.2019.VIETNAMESE.1080p.WEBRip.x264-RARBG 1.86GB



帖子完整标题:二凤 Furie.2019.VIETNAMESE.1080p.WEBRip.x264-RARBG 1.86GB




◎译  名 二凤 / Furie
◎片  名 Hai Ph??ng
◎年  代 2018
◎产  地 越南
◎类  别 剧情 / 动作
◎语  言 越南语
◎上映日期 2018-09-02(越南)
◎IMDb评分 7.5/10 from 434 users
◎IMDb链接 http://www.imdb.com/title/tt9412268
◎豆瓣评分 0/10 from 0 users
◎豆瓣链接 https://movie.douban.com/subject/27621189/
◎片  长 98分钟
◎导  演 黎文杰 Le-Van Kiet
◎主  演 吴青芸 Thanh Van Ngo
      范英科 Pham Anh Khoa


◎标  签 动作 | 越南 | 2019 | 2010s | 越南电影 | 电影 | AMC | 晚場電影

◎简  介

  二凤是住在越南南部的一个底层女性。一天,女儿阿梅遭绑架,她被迫展开了救儿行动...

Video
ID : 1
Format : AVC
Format/Info : Advanced Video Codec
Format profile : [email protected]
Format settings : CABAC / 4 Ref Frames
Format settings, CABAC : Yes
Format settings, ReFrames : 4 frames
Codec ID : avc1
Codec ID/Info : Advanced Video Coding
Duration : 1 h 37 min
Bit rate : 2 500 kb/s
Width : 1 920 pixels
Height : 800 pixels
Display aspect ratio : 2.40:1
Frame rate mode : Constant
Frame rate : 24.000 FPS
Color space : YUV
Chroma subsampling : 4:2:0
Bit depth : 8 bits
Scan type : Progressive
Bits/(Pixel*Frame) : 0.068
Stream size : 1.70 GiB (92%)
Writing library : x264 core 152 r2851M ba24899
Encoding settings : cabac=1 / ref=4 / deblock=1:-1:-1 / analyse=0x3:0x113 / me=umh / subme=9 / psy=1 / psy_rd=1.00:0.15 / mixed_ref=1 / me_range=24 / chroma_me=1 / trellis=2 / 8x8dct=1 / cqm=0 / deadzone=21,11 / fast_pskip=1 / chroma_qp_offset=-3 / threads=32 / lookahead_threads=4 / sliced_threads=0 / nr=0 / decimate=1 / interlaced=0 / bluray_compat=0 / constrained_intra=0 / bframes=3 / b_pyramid=2 / b_adapt=2 / b_bias=0 / direct=3 / weightb=1 / open_gop=0 / weightp=2 / keyint=250 / keyint_min=25 / scenecut=40 / intra_refresh=0 / rc_lookahead=50 / rc=2pass / mbtree=1 / bitrate=2500 / ratetol=1.0 / qcomp=0.60 / qpmin=0 / qpmax=69 / qpstep=4 / cplxblur=20.0 / qblur=0.5 / vbv_maxrate=31250 / vbv_bufsize=31250 / nal_hrd=none / filler=0 / ip_ratio=1.40 / aq=3:1.00
Encoded date : UTC 2019-05-22 21:49:17
Tagged date : UTC 2019-05-22 21:49:17
Codec configuration box : avcC

Audio
ID : 2
Format : AAC LC
Format/Info : Advanced Audio Codec Low Complexity
Codec ID : mp4a-40-2
Duration : 1 h 37 min
Duration_LastFrame : -11 ms
Bit rate mode : Constant
Bit rate : 224 kb/s
Channel(s) : 6 channels
Channel layout : C L R Ls Rs LFE
Sampling rate : 48.0 kHz
Frame rate : 46.875 FPS (1024 SPF)
Compression mode : Lossy
Stream size : 156 MiB (8%)
Language : Vietnamese
Default : Yes
Alternate group : 1
Encoded date : UTC 2019-05-22 21:49:17
Tagged date : UTC 2019-05-22 21:49:17






1 个附件(点击附件名进行下载) 售价 大小 下载 时间

0 金币 19.97K 34 次 1月前

#1楼
发帖时间:1月前   |   查看数:0   |   回复数:0
游客组
快速回复