linxiang

[WEB-720P] [2018] [欧美] [剧情] 干涉 Interference.2018.720p.WEBRip.x264-ASSOCiATE 1.09GB



帖子完整标题:干涉 Interference.2018.720p.WEBRip.x264-ASSOCiATE 1.09GB




◎译  名 干涉 / Burnt Girl
◎片  名 Interference
◎年  代 2018
◎产  地 美国
◎类  别 剧情 / 悬疑 / 犯罪
◎语  言 英语
◎上映日期 2018-11-14(美国)
◎IMDb评分 3.3/10 from 67 users
◎IMDb链接 http://www.imdb.com/title/tt6648468
◎豆瓣评分 0/10 from 0 users
◎豆瓣链接 https://movie.douban.com/subject/30325878/
◎导  演 Linda Di Franco
◎编  剧 Linda Di Franco
◎主  演 汤姆·威斯多姆 Tom Wisdom
      布鲁斯·托马斯 Bruce Thomas
      Victoria Gabrielle Platt


◎标  签 悬疑

◎简  介

  A retiring detective tries to discover the identity of a half charred woman found in front of a District Attorney's boat who is pursuing a child serial killer.

Video
ID : 1
Format : AVC
Format/Info : Advanced Video Codec
Format profile : [email protected]
Format settings : CABAC / 5 Ref Frames
Format settings, CABAC : Yes
Format settings, ReFrames : 5 frames
Codec ID : V_MPEG4/ISO/AVC
Duration : 1 h 20 min
Bit rate : 1 819 kb/s
Width : 1 280 pixels
Height : 536 pixels
Display aspect ratio : 2.40:1
Frame rate mode : Constant
Frame rate : 23.976 (24000/1001) FPS
Color space : YUV
Chroma subsampling : 4:2:0
Bit depth : 8 bits
Scan type : Progressive
Bits/(Pixel*Frame) : 0.111
Stream size : 1.02 GiB (93%)
Writing library : x264 core 157 r2970 5493be8
Encoding settings : cabac=1 / ref=5 / deblock=1:-3:-3 / analyse=0x3:0x113 / me=hex / subme=8 / psy=1 / psy_rd=1.00:0.15 / mixed_ref=1 / me_range=16 / chroma_me=1 / trellis=2 / 8x8dct=1 / cqm=0 / deadzone=21,11 / fast_pskip=1 / chroma_qp_offset=-3 / threads=6 / lookahead_threads=1 / sliced_threads=0 / nr=0 / decimate=1 / interlaced=0 / bluray_compat=0 / constrained_intra=0 / bframes=3 / b_pyramid=2 / b_adapt=1 / b_bias=0 / direct=3 / weightb=1 / open_gop=0 / weightp=2 / keyint=250 / keyint_min=23 / scenecut=40 / intra_refresh=0 / rc_lookahead=50 / rc=crf / mbtree=1 / crf=18.0 / qcomp=0.60 / qpmin=0 / qpmax=69 / qpstep=4 / vbv_maxrate=17500 / vbv_bufsize=17500 / crf_max=0.0 / nal_hrd=none / filler=0 / ip_ratio=1.40 / aq=1:0.60
Default : Yes
Forced : No
Color range : Limited
Matrix coefficients : BT.709

Audio
ID : 2
Format : AAC LC
Format/Info : Advanced Audio Codec Low Complexity
Codec ID : A_AAC-2
Duration : 1 h 20 min
Bit rate : 126 kb/s
Channel(s) : 2 channels
Channel layout : L R
Sampling rate : 44.1 kHz
Frame rate : 43.066 FPS (1024 SPF)
Compression mode : Lossy
Stream size : 72.1 MiB (6%)
Language : English
Default : Yes
Forced : No

Text
ID : 3
Format : UTF-8
Codec ID : S_TEXT/UTF8
Codec ID/Info : UTF-8 Plain Text
Duration : 1 h 19 min
Bit rate : 57 b/s
Count of elements : 1262
Stream size : 33.6 KiB (0%)
Language : English
Default : No
Forced : No






1 个附件(点击附件名进行下载) 售价 大小 下载 时间

0 金币 11.64K 42 次 1月前

#1楼
发帖时间:1月前   |   查看数:0   |   回复数:0
游客组
快速回复