jianpanshou

[2018] [其他] [剧情] 影 Shadow.2018.CHINESE.2160p.BluRay.x264.8bit.SDR.DTS-HD.MA.TrueHD.7.1.Atmos-SWTY



帖子完整标题:影 Shadow.2018.CHINESE.2160p.BluRay.x264.8bit.SDR.DTS-HD.MA.TrueHD.7.1.Atmos-SWTYBLZ 26.24GB




◎译  名 Shadow / 三国·荆州 / 荆州保卫战
◎片  名 影
◎年  代 2018
◎产  地 中国大陆 / 香港
◎类  别 剧情 / 动作 / 武侠 / 古装
◎语  言 汉语普通话
◎上映日期 2018-09-06(威尼斯电影节) / 2018-09-30(中国大陆)
◎IMDb评分 7.1/10 from 3137 users
◎IMDb链接 http://www.imdb.com/title/tt6864046
◎豆瓣评分 7.2/10 from 399527 users
◎豆瓣链接 https://movie.douban.com/subject/4864908/
◎片  长 116分钟
◎导  演 张艺谋 Yimou Zhang
◎编  剧 李威 Wei Li / 张艺谋 Yimou Zhang
◎主  演 邓超 Chao Deng
      孙俪 Li Sun
      郑恺 Kai Zheng
      王千源 Qianyuan Wang
      王景春 Jingchun Wang
      胡军 Jun Hu
      关晓彤 Xiaotong Guan
      吴磊 Lei Wu
      封柏 Bai Feng


◎标  签 水墨 | 视觉艺术 | 古装 | 黑白 | 武侠 | 中国大陆 | 人性 | 2018

◎简  介

  战乱年代,群雄并起。割据一方的沛国安于现状,一任国主沛良(郑恺 饰)慨歌太平。要冲之地境州早年为强邻炎国借去,而今据而不还。沛国都督子虞(邓超 饰)前往讨伐,却中了对方大将杨苍(胡军 饰)的拖刀,重伤不愈。心有不甘的子虞暗中派出替身境州(邓超 饰)假扮自己,总理军政,内则使令夫人小艾(孙俪 饰)襄助。真假子虞切磋战法,寻求破解杨苍刀法的绝技。而另一方面,沛良恼怒子虞私自约战杨苍,不惜将妹妹青萍(关晓彤 饰)嫁于杨苍之子为妾媾和。淫雨霏霏,连日不开。境州上空,杀戮与机谋纠缠撕裂……
本片根据朱苏进的剧本《三国?荆州》改编。

◎获奖情况

  第55届台北金马影展(2018)
  金马奖 最佳剧情片(提名)
  金马奖 最佳导演 张艺谋
  金马奖 最佳男主角(提名) 邓超
  金马奖 最佳女主角(提名) 孙俪
  金马奖 最佳改编剧本(提名) 李威 / 张艺谋
  金马奖 最佳摄影(提名) 赵小丁
  金马奖 最佳美术设计 马光荣
  金马奖 最佳造型设计 陈敏正
  金马奖 最佳动作设计(提名) 谷轩昭
  金马奖 最佳原创配乐(提名) 捞仔
  金马奖 最佳音效(提名) 赵楠 / 杨江
  金马奖 最佳视觉效果 王星会

  第13届亚洲电影大奖(2019)
  最佳摄影 赵小丁
  最佳剪接(提名) 周肖林
  最佳原创音乐(提名) 捞仔
  最佳美术指导 马光荣
  最佳造型设计 陈敏正
  最佳音响 赵楠 / 杨江

  第26届北京大学生电影节(2019)
  最佳观赏效果奖



Video
ID : 1
Format : AVC
Format/Info : Advanced Video Codec
Format profile : [email protected]
Format settings : CABAC / 5 Ref Frames
Format settings, CABAC : Yes
Format settings, RefFrames : 5 frames
Codec ID : V_MPEG4/ISO/AVC
Duration : 1 h 55 min
Bit rate : 22.1 Mb/s
Width : 3 840 pixels
Height : 1 604 pixels
Display aspect ratio : 2.40:1
Frame rate mode : Constant
Frame rate : 24.000 FPS
Color space : YUV
Chroma subsampling : 4:2:0
Bit depth : 8 bits
Scan type : Progressive
Bits/(Pixel*Frame) : 0.150
Stream size : 17.9 GiB (69%)
Title : Shadow.2018.CHINESE.2160p.BluRay.x264.8bit.SDR.DTS-HD.MA.TrueHD.7.1.Atmos-SWTYBLZ
Writing library : x264 core 157 r2935 545de2f
Encoding settings : cabac=1 / ref=5 / deblock=1:-1:-1 / analyse=0x3:0x113 / me=umh / subme=10 / psy=1 / psy_rd=1.00:0.15 / mixed_ref=1 / me_range=48 / chroma_me=1 / trellis=2 / 8x8dct=1 / cqm=0 / deadzone=21,11 / fast_pskip=1 / chroma_qp_offset=-3 / threads=48 / lookahead_threads=4 / sliced_threads=0 / nr=0 / decimate=0 / interlaced=0 / bluray_compat=0 / constrained_intra=0 / bframes=3 / b_pyramid=2 / b_adapt=2 / b_bias=0 / direct=3 / weightb=1 / open_gop=0 / weightp=2 / keyint=250 / keyint_min=23 / scenecut=40 / intra_refresh=0 / rc_lookahead=50 / rc=crf / mbtree=1 / crf=18.0 / qcomp=0.60 / qpmin=0 / qpmax=69 / qpstep=4 / ip_ratio=1.40 / aq=1:1.00
Default : Yes
Forced : No

Audio #1
ID : 2
Format : MLP FBA 16-ch
Format/Info : Meridian Lossless Packing FBA with 16-channel presentation
Commercial name : Dolby TrueHD with Dolby Atmos
Codec ID : A_TRUEHD
Duration : 1 h 55 min
Bit rate mode : Variable
Bit rate : 4 686 kb/s
Maximum bit rate : 7 278 kb/s
Channel(s) : 8 channels
Channel layout : L R C LFE Ls Rs Lb Rb
Sampling rate : 48.0 kHz
Frame rate : 1 200.000 FPS (40 SPF)
Compression mode : Lossless
Stream size : 3.80 GiB (15%)
Title : Shadow.2018.CHINESE.2160p.BluRay.x264.8bit.SDR.DTS-HD.MA.TrueHD.7.1.Atmos-SWTYBLZ
Language : Chinese
Default : Yes
Forced : No
Number of dynamic objects : 11
Bed channel count : 1 channel
Bed channel configuration : LFE

Audio #2
ID : 3
Format : DTS XLL
Format/Info : Digital Theater Systems
Commercial name : DTS-HD Master Audio
Codec ID : A_DTS
Duration : 1 h 55 min
Bit rate mode : Variable
Bit rate : 4 732 kb/s
Channel(s) : 8 channels
Channel layout : C L R LFE Lb Rb Lss Rss
Sampling rate : 48.0 kHz
Frame rate : 93.750 FPS (512 SPF)
Bit depth : 24 bits
Compression mode : Lossless
Stream size : 3.83 GiB (15%)
Title : Shadow.2018.CHINESE.2160p.BluRay.x264.8bit.SDR.DTS-HD.MA.TrueHD.7.1.Atmos-SWTYBLZ
Language : Chinese
Default : No
Forced : No

Audio #3
ID : 4
Format : AC-3
Format/Info : Audio Coding 3
Commercial name : Dolby Digital
Codec ID : A_AC3
Duration : 1 h 55 min
Bit rate mode : Constant
Bit rate : 640 kb/s
Channel(s) : 6 channels
Channel layout : L R C LFE Ls Rs
Sampling rate : 48.0 kHz
Frame rate : 31.250 FPS (1536 SPF)
Bit depth : 16 bits
Compression mode : Lossy
Stream size : 531 MiB (2%)
Title : Shadow.2018.CHINESE.2160p.BluRay.x264.8bit.SDR.DTS-HD.MA.TrueHD.7.1.Atmos-SWTYBLZ
Language : Chinese
Service kind : Complete Main
Default : No
Forced : No

Text #1
ID : 5
Format : UTF-8
Codec ID : S_TEXT/UTF8
Codec ID/Info : UTF-8 Plain Text
Duration : 1 h 44 min
Bit rate : 28 b/s
Count of elements : 1106
Stream size : 21.8 KiB (0%)
Title : English-SRT
Language : English
Default : Yes
Forced : Yes

Text #2
ID : 6
Format : PGS
Muxing mode : zlib
Codec ID : S_HDMV/PGS
Codec ID/Info : Picture based subtitle format used on BDs/HD-DVDs
Duration : 1 h 44 min
Bit rate : 19.8 kb/s
Count of elements : 2206
Stream size : 14.8 MiB (0%)
Title : Chinese-PGS
Language : Chinese
Default : No
Forced : No

Text #3
ID : 7
Format : PGS
Muxing mode : zlib
Codec ID : S_HDMV/PGS
Codec ID/Info : Picture based subtitle format used on BDs/HD-DVDs
Duration : 1 h 44 min
Bit rate : 18.5 kb/s
Count of elements : 2206
Stream size : 13.9 MiB (0%)
Title : Chinese-PGS
Language : Chinese
Default : No
Forced : No

Text #4
ID : 8
Format : PGS
Muxing mode : zlib
Codec ID : S_HDMV/PGS
Codec ID/Info : Picture based subtitle format used on BDs/HD-DVDs
Duration : 1 h 44 min
Bit rate : 22.7 kb/s
Count of elements : 2206
Stream size : 17.0 MiB (0%)
Title : English-PGS
Language : English
Default : No
Forced : No

Menu
00:00:00.000 : en:Chapter 01
00:12:37.541 : en:Chapter 02
00:24:52.750 : en:Chapter 03
00:32:30.708 : en:Chapter 04
00:41:19.666 : en:Chapter 05
00:50:24.833 : en:Chapter 06
01:05:11.583 : en:Chapter 07
01:18:52.333 : en:Chapter 08
01:23:47.083 : en:Chapter 09
01:27:02.916 : en:Chapter 10
01:33:11.541 : en:Chapter 11
01:47:58.500 : en:Chapter 12






1 个附件(点击附件名进行下载) 售价 大小 下载 时间

0 金币 66.26K 32 次 1月前

#1楼
发帖时间:1月前   |   查看数:0   |   回复数:0
游客组
快速回复