wenba

[2014] [欧美] [剧情] 信仰的事 A.Matter.of.Faith.2014.LIMITED.720p.WEB.x264-ASSOCiATE 1.56GB






◎译  名 信仰的事
◎片  名 A Matter of Faith
◎年  代 2014
◎产  地 美国
◎类  别 剧情
◎语  言 英语
◎上映日期 2014-09-26(美国)
◎IMDb评分 3.7/10 from 1279 users
◎IMDb链接 http://www.imdb.com/title/tt2587914
◎豆瓣评分 0/10 from 0 users
◎豆瓣链接 https://movie.douban.com/subject/25852028/
◎导  演 Rich Christiano
◎编  剧 Dave Christiano / Rich Christiano
◎主  演 Jordan Trovillion
      Jay Pickett
      Harry Anderson


◎标  签 信仰到底能带给人什么呢?

◎简  介

  暂无相关剧情介绍

Video
ID : 1
Format : AVC
Format/Info : Advanced Video Codec
Format profile : [email protected]
Format settings : CABAC / 4 Ref Frames
Format settings, CABAC : Yes
Format settings, ReFrames : 4 frames
Codec ID : V_MPEG4/ISO/AVC
Duration : 1 h 27 min
Bit rate : 2 411 kb/s
Width : 1 280 pixels
Height : 720 pixels
Display aspect ratio : 16:9
Frame rate mode : Constant
Frame rate : 23.976 (24000/1001) FPS
Color space : YUV
Chroma subsampling : 4:2:0
Bit depth : 8 bits
Scan type : Progressive
Bits/(Pixel*Frame) : 0.109
Stream size : 1.48 GiB (95%)
Writing library : x264 core 148 r2643 5c65704
Encoding settings : cabac=1 / ref=4 / deblock=1:0:0 / analyse=0x3:0x113 / me=umh / subme=8 / psy=1 / psy_rd=1.00:0.00 / mixed_ref=1 / me_range=16 / chroma_me=1 / trellis=0 / 8x8dct=1 / cqm=0 / deadzone=21,11 / fast_pskip=1 / chroma_qp_offset=-2 / threads=1 / lookahead_threads=1 / sliced_threads=0 / nr=0 / decimate=1 / interlaced=0 / bluray_compat=0 / constrained_intra=0 / bframes=4 / b_pyramid=2 / b_adapt=2 / b_bias=0 / direct=3 / weightb=1 / open_gop=0 / weightp=2 / keyint=96 / keyint_min=48 / scenecut=40 / intra_refresh=0 / rc_lookahead=40 / rc=crf / mbtree=1 / crf=1.0 / qcomp=0.60 / qpmin=0 / qpmax=69 / qpstep=4 / vbv_maxrate=2400 / vbv_bufsize=2400 / crf_max=0.0 / nal_hrd=none / filler=0 / ip_ratio=1.41 / aq=1:1.00
Default : Yes
Forced : No

Audio
ID : 2
Format : AAC LC
Format/Info : Advanced Audio Codec Low Complexity
Codec ID : A_AAC-2
Duration : 1 h 27 min
Bit rate : 126 kb/s
Channel(s) : 2 channels
Channel layout : L R
Sampling rate : 44.1 kHz
Frame rate : 43.066 FPS (1024 SPF)
Compression mode : Lossy
Delay relative to video : -83 ms
Stream size : 78.8 MiB (5%)
Language : English
Default : Yes
Forced : No

Text
ID : 3
Format : UTF-8
Codec ID : S_TEXT/UTF8
Codec ID/Info : UTF-8 Plain Text
Duration : 1 h 27 min
Bit rate : 97 b/s
Count of elements : 2073
Stream size : 62.7 KiB (0%)
Title : English
Language : English
Default : No
Forced : No






1 个附件(点击附件名进行下载) 售价 大小 下载 时间

0 金币 16.22K 19 次 1月前

#1楼
发帖时间:1月前   |   查看数:0   |   回复数:0
游客组
快速回复