style

[WEB-1080P] [其他] [剧情] 鹈鹕的故事/风暴男孩 Storm.Boy.2019.1080p.WEB-DL.DD5.1.H264-FGT 3.40GB






◎译  名 鹈鹕的故事 / 风暴男孩
◎片  名 Storm Boy
◎年  代 2019
◎产  地 澳大利亚
◎类  别 剧情 / 家庭
◎语  言 英语
◎上映日期 2019-01-10(澳大利亚)
◎IMDb评分 6.9/10 from 909 users
◎IMDb链接 http://www.imdb.com/title/tt3340446
◎豆瓣评分 7.4/10 from 710 users
◎豆瓣链接 https://movie.douban.com/subject/27042709/
◎片  长 99分钟
◎导  演 肖恩·斯伊特 Shawn Seet
◎编  剧 贾斯廷·蒙霍 Justin Monjo / 科林·狄力 Colin Thiele
◎主  演 杰·科特尼 Jai Courtney
      杰弗里·拉什 Geoffrey Rush
      大卫·古皮利 David Gulpilil
      艾瑞克·托马森 Erik Thomson
      西蒙娜·安南 Simone Annan
      钱塔尔·库图里 Chantal Contouri
      摩根·戴维斯 Morgana Davies
      芬恩·利特 Finn Little


◎标  签 澳大利亚 | 动物 | 自然 | 儿童 | 剧情 | 家庭 | 鹈鹕 | 2019

◎简  介

  杰弗里·拉什、杰·科特尼([自杀小队])加盟新版[鹈鹕的故事],影片改编自科林·狄力同名小说;1976年,导演汉瑞·塞夫兰曾将该小说搬上大银幕。影片围绕澳洲海岸边一个关于友情与爱的故事展开。导演肖恩·斯伊特(澳剧《深水迷案》),影片将采用真人与3-D电脑特效动画相结合的形式。7月开机。

Video
ID : 1
Format : AVC
Format/Info : Advanced Video Codec
Format profile : [email protected]
Format settings : CABAC / 5 Ref Frames
Format settings, CABAC : Yes
Format settings, ReFrames : 5 frames
Codec ID : V_MPEG4/ISO/AVC
Duration : 1 h 38 min
Bit rate : 4 538 kb/s
Width : 1 916 pixels
Height : 796 pixels
Display aspect ratio : 2.40:1
Frame rate mode : Constant
Frame rate : 23.976 (23976/1000) FPS
Color space : YUV
Chroma subsampling : 4:2:0
Bit depth : 8 bits
Scan type : Progressive
Bits/(Pixel*Frame) : 0.124
Stream size : 3.14 GiB (92%)
Title : Storm.Boy.2019.1080p.WEB-DL.DD5.1.H264-FGT
Language : English
Default : Yes
Forced : No
Color range : Limited
Color primaries : BT.709
Transfer characteristics : BT.709
Matrix coefficients : BT.709

Audio
ID : 2
Format : AC-3
Format/Info : Audio Coding 3
Commercial name : Dolby Digital
Codec ID : A_AC3
Duration : 1 h 38 min
Bit rate mode : Constant
Bit rate : 384 kb/s
Channel(s) : 6 channels
Channel layout : L R C LFE Ls Rs
Sampling rate : 48.0 kHz
Frame rate : 31.250 FPS (1536 SPF)
Bit depth : 16 bits
Compression mode : Lossy
Stream size : 272 MiB (8%)
Title : Storm.Boy.2019.1080p.WEB-DL.DD5.1.H264-FGT
Language : English
Service kind : Complete Main
Default : Yes
Forced : No

Menu
00:00:00.000 : en:1
00:07:57.477 : en:2
00:12:18.738 : en:3
00:16:53.679 : en:4
00:23:10.055 : en:5
00:29:40.528 : en:6
00:36:32.606 : en:7
00:42:01.518 : en:8
00:47:51.659 : en:9
00:52:54.586 : en:10
00:56:12.575 : en:11
01:03:30.304 : en:12
01:13:45.043 : en:13
01:18:44.300 : en:14
01:23:45.601 : en:15
01:31:14.549 : en:16






1 个附件(点击附件名进行下载) 售价 大小 下载 时间

0 金币 34.53K 26 次 1月前

#1楼
发帖时间:1月前   |   查看数:0   |   回复数:0
游客组
快速回复