jianpanshou

[WEB-1080P] [2017] [欧美] [剧情] 无法消弭的爱 And.Then.There.Was.Eve.2017.1080p.WEB-DL.DD5.1.H264-FGT 3.22GB






◎译  名 无法消弭的爱
◎片  名 And Then There Was Eve
◎年  代 2017
◎产  地 美国
◎类  别 剧情
◎语  言 英语
◎上映日期 2017(美国)
◎IMDb评分 4.9/10 from 104 users
◎IMDb链接 http://www.imdb.com/title/tt4795730
◎豆瓣评分 0/10 from 0 users
◎豆瓣链接 https://movie.douban.com/subject/30468617/
◎片  长 96分钟
◎导  演 Savannah Bloch
◎编  剧 科莱特·弗里德曼 Colette Freedman / Savannah Bloch
◎主  演 坦尼亚·诺兰 Tania Nolan
      Rachel Crowl
      玛丽·霍兰 Mary Holland
      卡兰·索尼 Karan Soni
      Anne Gee Byrd
      约翰·卡西尔 John Kassir
      多米尼克·博加特 Dominic Bogart
      科莱特·弗里德曼 Colette Freedman
      Jonathan Flanagan
      康拉德·罗伯茨 Conrad Roberts
      珍妮卡·贝尔格雷 Jenica Bergere
      迈克·埃尔文 Mike Erwin
      克里斯特尔·玛丽·丹纳 Crystal Marie Denha
      Waide Aaron Riddle


◎标  签 美国 | LGBT | 2017 | 美国电影 | 影 | 同性 | 剧情 | M美国

◎简  介

  A woman grapples with the loss of her husband while learning to love someone new.

Video
ID : 1
Format : AVC
Format/Info : Advanced Video Codec
Format profile : [email protected]
Format settings : CABAC / 5 Ref Frames
Format settings, CABAC : Yes
Format settings, ReFrames : 5 frames
Codec ID : V_MPEG4/ISO/AVC
Duration : 1 h 32 min
Bit rate : 4 585 kb/s
Width : 1 920 pixels
Height : 800 pixels
Display aspect ratio : 2.40:1
Frame rate mode : Constant
Frame rate : 23.976 (23976/1000) FPS
Color space : YUV
Chroma subsampling : 4:2:0
Bit depth : 8 bits
Scan type : Progressive
Bits/(Pixel*Frame) : 0.124
Stream size : 2.97 GiB (92%)
Title : And.Then.There.Was.Eve.2017.1080p.WEB-DL.DD5.1.H264-FGT
Language : English
Default : Yes
Forced : No
Color range : Limited
Color primaries : BT.709
Transfer characteristics : BT.709
Matrix coefficients : BT.709

Audio
ID : 2
Format : AC-3
Format/Info : Audio Coding 3
Commercial name : Dolby Digital
Codec ID : A_AC3
Duration : 1 h 32 min
Bit rate mode : Constant
Bit rate : 384 kb/s
Channel(s) : 6 channels
Channel layout : L R C LFE Ls Rs
Sampling rate : 48.0 kHz
Frame rate : 31.250 FPS (1536 SPF)
Bit depth : 16 bits
Compression mode : Lossy
Stream size : 254 MiB (8%)
Title : And.Then.There.Was.Eve.2017.1080p.WEB-DL.DD5.1.H264-FGT
Language : English
Service kind : Complete Main
Default : Yes
Forced : No

Text
ID : 3
Format : UTF-8
Codec ID : S_TEXT/UTF8
Codec ID/Info : UTF-8 Plain Text
Duration : 1 h 32 min
Bit rate : 76 b/s
Count of elements : 1643
Stream size : 51.8 KiB (0%)
Language : English
Default : Yes
Forced : No

Menu
00:00:00.000 : en:1
00:14:44.009 : en:2
00:24:06.613 : en:3
00:34:59.390 : en:4
00:46:35.794 : en:5
00:57:44.002 : en:6
01:10:42.029 : en:7
01:23:58.657 : en:8
01:30:14.114 : en:9






1 个附件(点击附件名进行下载) 售价 大小 下载 时间

0 金币 32.70K 13 次 1月前

#1楼
发帖时间:1月前   |   查看数:0   |   回复数:0
游客组
快速回复