tianji

[WEB-1080P] [2017] [欧美] [喜剧] 醉酒夫妻 Drunk.Parents.2019.1080p.WEB-DL.DD5.1.H264-FGT 3.73GB






◎译  名 醉酒夫妻
◎片  名 Drunk Parents
◎年  代 2017
◎产  地 美国
◎类  别 喜剧
◎语  言 英语
◎上映日期 2019-04-19(美国)
◎IMDb评分 3.6/10 from 1376 users
◎IMDb链接 http://www.imdb.com/title/tt5037840
◎豆瓣评分 4.7/10 from 116 users
◎豆瓣链接 https://movie.douban.com/subject/26710676/
◎片  长 97分钟
◎导  演 弗雷德·沃尔夫 Fred Wolf
◎编  剧 彼得·高尔克 Peter Gaulke / 弗雷德·沃尔夫 Fred Wolf
◎主  演 萨尔玛·海耶克 Salma Hayek
      亚历克·鲍德温 Alec Baldwin
      吉姆·加菲根 Jim Gaffigan
      乔·曼根尼罗 Joe Manganiello
      奥莉维亚·卢卡尔迪 Olivia Luccardi
      布丽姬·穆娜 Bridget Moynahan
      本·普拉特 Ben Platt


◎标  签 喜剧 | 美国 | 2017 | 烂片 | 美国电影 | 亚历克·鲍德温 | 2019 | 萨尔玛·海耶克

◎简  介

  鲍德温与海耶克将在片中饰演一对夫妻,在送归女儿返校后,两人的午夜畅饮,却引发了一起充斥着搞笑情节的绑架事件。

Video
ID : 1
Format : AVC
Format/Info : Advanced Video Codec
Format profile : [email protected]
Format settings : CABAC / 4 Ref Frames
Format settings, CABAC : Yes
Format settings, ReFrames : 4 frames
Codec ID : V_MPEG4/ISO/AVC
Duration : 1 h 36 min
Bit rate : 5 126 kb/s
Width : 1 920 pixels
Height : 1 032 pixels
Display aspect ratio : 1.85:1
Frame rate mode : Constant
Frame rate : 23.976 (23976/1000) FPS
Color space : YUV
Chroma subsampling : 4:2:0
Bit depth : 8 bits
Scan type : Progressive
Bits/(Pixel*Frame) : 0.108
Stream size : 3.47 GiB (93%)
Title : Drunk.Parents.2019.1080p.WEB-DL.DD5.1.H264-FGT
Language : English
Default : Yes
Forced : No
Color range : Limited
Color primaries : BT.709
Transfer characteristics : BT.709
Matrix coefficients : BT.709

Audio
ID : 2
Format : AC-3
Format/Info : Audio Coding 3
Commercial name : Dolby Digital
Codec ID : A_AC3
Duration : 1 h 36 min
Bit rate mode : Constant
Bit rate : 384 kb/s
Channel(s) : 6 channels
Channel layout : L R C LFE Ls Rs
Sampling rate : 48.0 kHz
Frame rate : 31.250 FPS (1536 SPF)
Bit depth : 16 bits
Compression mode : Lossy
Stream size : 266 MiB (7%)
Title : Drunk.Parents.2019.1080p.WEB-DL.DD5.1.H264-FGT
Language : English
Service kind : Complete Main
Default : Yes
Forced : No

Menu
00:00:00.000 : en:1
00:05:48.000 : en:2
00:13:01.000 : en:3
00:20:18.000 : en:4
00:25:45.000 : en:5
00:32:24.000 : en:6
00:38:35.000 : en:7
00:44:45.000 : en:8
00:51:53.000 : en:9
01:01:07.000 : en:10
01:07:27.000 : en:11
01:13:29.000 : en:12
01:17:16.000 : en:13
01:21:41.000 : en:14
01:26:49.000 : en:15
01:30:17.000 : en:16






1 个附件(点击附件名进行下载) 售价 大小 下载 时间

0 金币 37.80K 22 次 1月前

#1楼
发帖时间:1月前   |   查看数:0   |   回复数:0
游客组
快速回复