buzhidao

[WEB-1080P] [2018] [欧美] [惊悚] 达格纳姆 Dagenham.2018.1080p.WEB-DL.DD5.1.H264-FGT 3.68GB






◎译  名 达格纳姆
◎片  名 Dagenham
◎年  代 2018
◎产  地 英国
◎类  别 惊悚
◎语  言 英语
◎上映日期 2019-04-19(英国)
◎IMDb评分 5.1/10 from 78 users
◎IMDb链接 http://www.imdb.com/title/tt5478700
◎豆瓣评分 0/10 from 0 users
◎豆瓣链接 https://movie.douban.com/subject/30209654/
◎导  演 Jo Morris
◎编  剧 Jo Morris
◎主  演 Doraly Rosa
      Bradley Doughty
      Nikolaos Brahimllari
      Dean Roberts
      Ryan Winsley
      Chris Leaney
      莉莉·纽马克 Lily Newmark
      Tim Bowie
      Lloyd Sparsi
      Gemma Paget
      Jodie Wolf
      Aaron Gelkoff
      Barbara D'Alterio
      Holly McFarlane
      Veronica Jean Trickett


◎简  介

  A desperate mothers fight against drugs, death and desperation in the deprived town of Dagenham.

Video
ID : 1
Format : AVC
Format/Info : Advanced Video Codec
Format profile : [email protected]
Format settings : CABAC / 5 Ref Frames
Format settings, CABAC : Yes
Format settings, ReFrames : 5 frames
Codec ID : V_MPEG4/ISO/AVC
Duration : 1 h 46 min
Bit rate : 4 571 kb/s
Width : 1 920 pixels
Height : 808 pixels
Display aspect ratio : 2.40:1
Frame rate mode : Constant
Frame rate : 24.000 FPS
Color space : YUV
Chroma subsampling : 4:2:0
Bit depth : 8 bits
Scan type : Progressive
Bits/(Pixel*Frame) : 0.123
Stream size : 3.39 GiB (92%)
Title : Dagenham.2018.1080p.WEB-DL.DD5.1.H264-FGT
Language : English
Default : Yes
Forced : No
Color range : Limited
Color primaries : BT.709
Transfer characteristics : BT.709
Matrix coefficients : BT.709

Audio
ID : 2
Format : AC-3
Format/Info : Audio Coding 3
Commercial name : Dolby Digital
Codec ID : A_AC3
Duration : 1 h 46 min
Bit rate mode : Constant
Bit rate : 384 kb/s
Channel(s) : 2 channels
Channel layout : L R
Sampling rate : 48.0 kHz
Frame rate : 31.250 FPS (1536 SPF)
Bit depth : 16 bits
Compression mode : Lossy
Stream size : 292 MiB (8%)
Title : Dagenham.2018.1080p.WEB-DL.DD5.1.H264-FGT
Language : English
Service kind : Complete Main
Default : Yes
Forced : No

Text
ID : 3
Format : UTF-8
Codec ID : S_TEXT/UTF8
Codec ID/Info : UTF-8 Plain Text
Duration : 1 h 46 min
Bit rate : 66 b/s
Count of elements : 1609
Stream size : 51.4 KiB (0%)
Language : English
Default : Yes
Forced : No

Menu
00:00:00.000 : en:1
00:17:16.618 : en:2
00:33:52.238 : en:3
00:51:02.350 : en:4
01:08:32.732 : en:5
01:25:42.595 : en:6
01:42:47.703 : en:7






1 个附件(点击附件名进行下载) 售价 大小 下载 时间

0 金币 37.32K 44 次 4月前

#1楼
发帖时间:4月前   |   查看数:0   |   回复数:0
游客组
快速回复