shubao

[WEB-1080P] [2017] [欧美] [惊悚] 惊悚之夜 Hell.Of.A.Night.2019.1080p.WEB-DL.DD2.0.H264-FGT 2.90GB






◎译  名 惊悚之夜
◎片  名 Hell of a Night
◎年  代 2017
◎产  地 美国
◎类  别 惊悚 / 恐怖
◎语  言 英语
◎上映日期 2017-09-22(美国)
◎IMDb评分 3.3/10 from 154 users
◎IMDb链接 http://www.imdb.com/title/tt3912672
◎豆瓣评分 3.3/10 from 123 users
◎豆瓣链接 https://movie.douban.com/subject/30446849/
◎片  长 84分钟
◎导  演 Brian Childs
◎编  剧 Brian Childs
◎主  演 Rachael Hevrin


◎标  签 惊悚 | 美国 | 恐怖 | 烂片 | 犯罪 | 2017 | 美国电影 | 狗血

◎简  介

  搬到一个新城镇后,一位年轻的大学生打算在乡村过一个悠闲的周末,但她很快发现自己并不孤单,并且需要为自己的生命而战。

Video
ID : 1
Format : AVC
Format/Info : Advanced Video Codec
Format profile : [email protected]
Format settings : CABAC / 5 Ref Frames
Format settings, CABAC : Yes
Format settings, ReFrames : 5 frames
Codec ID : V_MPEG4/ISO/AVC
Duration : 1 h 24 min
Bit rate : 4 532 kb/s
Width : 1 920 pixels
Height : 792 pixels
Display aspect ratio : 2.40:1
Frame rate mode : Constant
Frame rate : 24.000 FPS
Color space : YUV
Chroma subsampling : 4:2:0
Bit depth : 8 bits
Scan type : Progressive
Bits/(Pixel*Frame) : 0.124
Stream size : 2.67 GiB (92%)
Title : Hell.Of.A.Night.2019.1080p.WEB-DL.DD5.1.H264-FGT
Language : English
Default : Yes
Forced : No
Color range : Limited
Color primaries : BT.709
Transfer characteristics : BT.709
Matrix coefficients : BT.709

Audio
ID : 2
Format : AC-3
Format/Info : Audio Coding 3
Commercial name : Dolby Digital
Codec ID : A_AC3
Duration : 1 h 24 min
Bit rate mode : Constant
Bit rate : 384 kb/s
Channel(s) : 2 channels
Channel layout : L R
Sampling rate : 48.0 kHz
Frame rate : 31.250 FPS (1536 SPF)
Bit depth : 16 bits
Compression mode : Lossy
Stream size : 232 MiB (8%)
Title : Hell.Of.A.Night.2019.1080p.WEB-DL.DD5.1.H264-FGT
Language : English
Service kind : Complete Main
Default : Yes
Forced : No

Text
ID : 3
Format : UTF-8
Codec ID : S_TEXT/UTF8
Codec ID/Info : UTF-8 Plain Text
Duration : 1 h 22 min
Bit rate : 37 b/s
Count of elements : 668
Stream size : 22.5 KiB (0%)
Language : English
Default : Yes
Forced : No

Menu
00:00:00.000 : en:1
00:06:17.000 : en:2
00:18:18.000 : en:3
00:27:56.000 : en:4
00:36:43.000 : en:5
00:46:23.000 : en:6
00:59:49.000 : en:7
01:08:31.000 : en:8
01:20:04.000 : en:9






1 个附件(点击附件名进行下载) 售价 大小 下载 时间

0 金币 29.48K 48 次 1月前

#1楼
发帖时间:1月前   |   查看数:0   |   回复数:0
游客组
快速回复