wenba

[WEB-1080P] [2018] [欧美] [剧情] 每21秒 Every.21.Seconds.2018.1080p.WEB-DL.DD5.1.H264-FGT 4.72GB






◎译  名 每21秒
◎片  名 Every 21 Seconds
◎年  代 2018
◎产  地 美国
◎类  别 剧情
◎语  言 英语
◎上映日期 2018-04-11
◎IMDb评分 5.8/10 from 92 users
◎IMDb链接 http://www.imdb.com/title/tt4650624
◎豆瓣评分 0/10 from 0 users
◎豆瓣链接 https://movie.douban.com/subject/27025005/
◎导  演 Kuba Luczkiewicz
◎编  剧 John Wesley Norton / Brian Sweeney / Dale Zawada
◎主  演 Shannon Brown
      Kelly Thiebaud
      Matt Pratt


◎标  签 美国 | 剧情 | 美国电影 | 罗宾·柯芬 | 感人 | 2018 | WEBrip | 720p

◎简  介

  一个快乐幸福的成功男人,由于一次认错人的袭击事件,不幸成为TBI(创伤性脑损伤)患者。他必须寻找到力量来支撑自己,从自己病后古怪的行为中恢复,做回以前那个好父亲好丈夫。在这个过程中他的亲人、妻子、朋友都给予了他极大地支持。同时,他遇到了一个意料之外的人,一个精神受损的前海军陆战队员。

Video
ID : 1
Format : AVC
Format/Info : Advanced Video Codec
Format profile : [email protected]
Format settings : CABAC / 4 Ref Frames
Format settings, CABAC : Yes
Format settings, ReFrames : 4 frames
Codec ID : V_MPEG4/ISO/AVC
Duration : 2 h 0 min
Bit rate : 5 225 kb/s
Width : 1 908 pixels
Height : 1 068 pixels
Display aspect ratio : 16:9
Frame rate mode : Constant
Frame rate : 23.976 (24000/1001) FPS
Color space : YUV
Chroma subsampling : 4:2:0
Bit depth : 8 bits
Scan type : Progressive
Bits/(Pixel*Frame) : 0.107
Stream size : 4.40 GiB (93%)
Title : Every.21.Seconds.2018.1080p.WEB-DL.DD5.1.H264-FGT
Language : English
Default : Yes
Forced : No
Color range : Limited
Color primaries : BT.709
Transfer characteristics : BT.709
Matrix coefficients : BT.709

Audio
ID : 2
Format : AC-3
Format/Info : Audio Coding 3
Commercial name : Dolby Digital
Codec ID : A_AC3
Duration : 2 h 0 min
Bit rate mode : Constant
Bit rate : 384 kb/s
Channel(s) : 6 channels
Channel layout : L R C LFE Ls Rs
Sampling rate : 48.0 kHz
Frame rate : 31.250 FPS (1536 SPF)
Bit depth : 16 bits
Compression mode : Lossy
Stream size : 331 MiB (7%)
Title : Every.21.Seconds.2018.1080p.WEB-DL.DD5.1.H264-FGT
Language : English
Service kind : Complete Main
Default : Yes
Forced : No

Text
ID : 3
Format : UTF-8
Codec ID : S_TEXT/UTF8
Codec ID/Info : UTF-8 Plain Text
Duration : 1 h 59 min
Bit rate : 81 b/s
Count of elements : 1934
Stream size : 71.1 KiB (0%)
Language : English
Default : Yes
Forced : No

Menu
00:00:00.000 : en:1
00:02:58.000 : en:2
00:14:20.000 : en:3
00:23:49.000 : en:4
00:33:11.000 : en:5
00:43:02.000 : en:6
00:54:49.000 : en:7
01:03:56.000 : en:8
01:13:30.000 : en:9
01:23:34.000 : en:10
01:34:15.000 : en:11
01:46:34.000 : en:12
01:56:55.000 : en:13






1 个附件(点击附件名进行下载) 售价 大小 下载 时间

0 金币 47.75K 45 次 1月前

#1楼
发帖时间:1月前   |   查看数:0   |   回复数:0
游客组
快速回复