shubao

[WEB-1080P] [2018] [其他] [剧情] 怒海仁心/冥河 Styx.2018.1080p.WEB-DL.DD5.1.H264-FGT 3.64GB






◎译  名 怒海仁心 / 冥河 / 斯蒂克斯 / 行过幽冥之河(台)
◎片  名 Styx
◎年  代 2018
◎产  地 德国 / 奥地利
◎类  别 剧情
◎语  言 德语
◎上映日期 2018-02-16(柏林电影节)
◎IMDb评分 6.5/10 from 1227 users
◎IMDb链接 http://www.imdb.com/title/tt5942864
◎豆瓣评分 7.0/10 from 63 users
◎豆瓣链接 https://movie.douban.com/subject/30143900/
◎片  长 94分钟
◎导  演 沃尔夫冈·费希尔 Wolfgang Fischer
◎编  剧 沃尔夫冈·费希尔 Wolfgang Fischer / Ika Künzel
◎主  演 苏珊·沃尔夫 Susanne Wolff
      Gedion Oduor Wekesa
      Felicity Babao
      亚历山大·拜尔 Alexander Beyer
      Inga Birkenfeld
      Anika Menger


◎标  签 2018 | 德国 | 冒险 | 2010s | 电影 | 奧地利 | 剧情 | Wolfgang_Fischer

◎简  介

  三十多岁的里克来自欧洲,是一名医生。急需一个假期的她,踏上了前往直布罗陀的旅途。但是她的梦幻假期很快就破灭了。风暴过后,她发现附近有一艘遭受重创的难民船。这艘超载的船已经开始漏水,如果她不伸出援手的话,一百多人就会淹死。尽管发生了一连串不愉快的事情,她还是在所剩不多的时间里亲身经历了友情、感恩和团结。

◎获奖情况

  第42届香港国际电影节(2018)
  新秀电影竞赛 火鸟大奖(提名)



Video
ID : 1
Format : AVC
Format/Info : Advanced Video Codec
Format profile : [email protected]
Format settings : CABAC / 4 Ref Frames
Format settings, CABAC : Yes
Format settings, ReFrames : 4 frames
Codec ID : V_MPEG4/ISO/AVC
Duration : 1 h 34 min
Bit rate : 5 119 kb/s
Width : 1 920 pixels
Height : 1 036 pixels
Display aspect ratio : 1.85:1
Frame rate mode : Constant
Frame rate : 24.000 FPS
Color space : YUV
Chroma subsampling : 4:2:0
Bit depth : 8 bits
Scan type : Progressive
Bits/(Pixel*Frame) : 0.107
Stream size : 3.38 GiB (93%)
Title : Styx.2018.1080p.WEB-DL.DD5.1.H264-FGT
Language : English
Default : Yes
Forced : No
Color range : Limited
Color primaries : BT.709
Transfer characteristics : BT.709
Matrix coefficients : BT.709

Audio
ID : 2
Format : AC-3
Format/Info : Audio Coding 3
Commercial name : Dolby Digital
Codec ID : A_AC3
Duration : 1 h 34 min
Bit rate mode : Constant
Bit rate : 384 kb/s
Channel(s) : 6 channels
Channel layout : L R C LFE Ls Rs
Sampling rate : 48.0 kHz
Frame rate : 31.250 FPS (1536 SPF)
Bit depth : 16 bits
Compression mode : Lossy
Stream size : 260 MiB (7%)
Title : Styx.2018.1080p.WEB-DL.DD5.1.H264-FGT
Language : English
Service kind : Complete Main
Default : Yes
Forced : No

Text
ID : 3
Format : UTF-8
Codec ID : S_TEXT/UTF8
Codec ID/Info : UTF-8 Plain Text
Duration : 2 min 6 s
Bit rate : 31 b/s
Count of elements : 20
Stream size : 498 Bytes (0%)
Language : English
Default : Yes
Forced : No






1 个附件(点击附件名进行下载) 售价 大小 下载 时间

0 金币 36.86K 48 次 4月前

#1楼
发帖时间:4月前   |   查看数:0   |   回复数:0
游客组
快速回复