qunide

[WEB-1080P] [2015] [欧美] [其他] 亚麻松:山谷行军 Yamasong.March.Of.The.Hollows.2017.1080p.WEB-DL.DD5.1.H264-FGT 3.91GB






◎译  名 亚麻松:山谷行军
◎片  名 Yamasong: March of the Hollows
◎年  代 2015
◎产  地 美国
◎类  别 动画 / 奇幻
◎语  言 英语
◎上映日期 2017-12-10(英国)
◎IMDb评分 5.7/10 from 79 users
◎IMDb链接 http://www.imdb.com/title/tt4191486
◎豆瓣评分 0/10 from 0 users
◎豆瓣链接 https://movie.douban.com/subject/26417568/
◎导  演 Sam Koji Hale
◎编  剧 Sam Koji Hale / Ekaterina Sedia
◎主  演 阿比盖尔·布蕾斯琳 Abigail Breslin
      内森·菲利安 Nathan Fillion
      马尔科姆·麦克道威尔 Malcolm McDowell
      芙蕾达·平托 Freida Pinto
      乌比·戈德堡 Whoopi Goldberg
      彼得·威勒 Peter Weller
      竹井乔治 George Takei
      爱德华·阿斯纳 Edward Asner
      布鲁斯·戴维森 Bruce Davison


◎标  签 奇幻 | 美国电影 | 动画片 | 动画 | 马尔科姆·麦克道威尔 | 阿比盖尔·布蕾斯琳 | 内森·菲利安

◎简  介

  An automated girl and tortoise warrior journey with a band of outlaws on an incredible quest. Their one hope is to find a legendary relic to defeat a sinister mechanized army and save the creatures of their world.

Video
ID : 1
Format : AVC
Format/Info : Advanced Video Codec
Format profile : [email protected]
Format settings : CABAC / 4 Ref Frames
Format settings, CABAC : Yes
Format settings, ReFrames : 4 frames
Codec ID : V_MPEG4/ISO/AVC
Duration : 1 h 39 min
Bit rate : 5 235 kb/s
Width : 1 920 pixels
Height : 1 038 pixels
Display aspect ratio : 1.85:1
Frame rate mode : Constant
Frame rate : 23.976 (24000/1001) FPS
Color space : YUV
Chroma subsampling : 4:2:0
Bit depth : 8 bits
Scan type : Progressive
Bits/(Pixel*Frame) : 0.110
Stream size : 3.64 GiB (93%)
Title : Yamasong.March.Of.The.Hollows.2017.1080p.WEB-DL.DD5.1.H264-FGT
Language : English
Default : Yes
Forced : No
Color range : Limited
Color primaries : BT.709
Transfer characteristics : BT.709
Matrix coefficients : BT.709

Audio
ID : 2
Format : AC-3
Format/Info : Audio Coding 3
Commercial name : Dolby Digital
Codec ID : A_AC3
Duration : 1 h 39 min
Bit rate mode : Constant
Bit rate : 384 kb/s
Channel(s) : 6 channels
Channel layout : L R C LFE Ls Rs
Sampling rate : 48.0 kHz
Frame rate : 31.250 FPS (1536 SPF)
Bit depth : 16 bits
Compression mode : Lossy
Stream size : 274 MiB (7%)
Title : Yamasong.March.Of.The.Hollows.2017.1080p.WEB-DL.DD5.1.H264-FGT
Language : English
Service kind : Complete Main
Default : Yes
Forced : No

Text
ID : 3
Format : UTF-8
Codec ID : S_TEXT/UTF8
Codec ID/Info : UTF-8 Plain Text
Duration : 1 h 36 min
Bit rate : 59 b/s
Count of elements : 1265
Stream size : 41.8 KiB (0%)
Language : English
Default : Yes
Forced : No

Menu
00:00:00.000 : en:1
00:15:00.000 : en:2
00:30:00.000 : en:3
00:45:00.000 : en:4
01:00:00.000 : en:5
01:15:00.000 : en:6
01:30:00.000 : en:7






1 个附件(点击附件名进行下载) 售价 大小 下载 时间

0 金币 39.67K 14 次 1月前

#1楼
发帖时间:1月前   |   查看数:0   |   回复数:0
游客组
快速回复