zacao

[WEB-1080P] [欧美] [其他] 忌日快乐2 Happy.Death.Day.2U.2019.1080p.WEB-DL.DD5.1.H264-FGT 3.44GB






◎译  名 忌日快乐2 / Happy Death Day 2 / Happy Death Day to You / 死亡无限2次LOOP(港) / 祝你忌日快乐(台)
◎片  名 Happy Death Day 2U
◎年  代 2019
◎产  地 美国
◎类  别 悬疑 / 惊悚 / 恐怖
◎语  言 英语
◎上映日期 2019-02-13(美国)
◎IMDb评分 6.3/10 from 23921 users
◎IMDb链接 http://www.imdb.com/title/tt8155288
◎豆瓣评分 6.6/10 from 36965 users
◎豆瓣链接 https://movie.douban.com/subject/30209818/
◎片  长 100分钟
◎导  演 克里斯托弗·兰登 Christopher Landon
◎编  剧 克里斯托弗·兰登 Christopher Landon
◎主  演 杰西卡·罗德 Jessica Rothe
      伊瑟尔·布罗萨德 Israel Broussard
      露比·莫迪恩 Ruby Modine
      苏拉·沙玛 Suraj Sharma
      史蒂夫·齐西斯 Steve Zissis
      瑞秋·马休斯 Rachel Matthews
      查尔斯·艾特肯 Charles Aitken
      莎拉·亚金 Sarah Yarkin
      凯莱布·斯比尔亚兹 Caleb Spillyards
      吉吉·埃内塔 GiGi Erneta
      劳拉·克利夫顿 Laura Clifton
      温迪·米克洛维奇 Wendy Miklovic
      凯勒布·拿奎恩 Kaleb Naquin
      肯尼斯·以色列 Kenneth Israel
      泰内娅·因崔亚戈 Tenea Intriago
      布莱恩·克恩 Blaine Kern III
      川川 Tran Tran
      卡瑞尔拉·史密斯 Cariella Smith
      罗布·梅洛 Rob Mello
      林赛·G.史密斯 Lindsey G. Smith
      飞·武 Phi Vu
      莎拉·贝纳尼 Sarah Bennani
      杰奎琳·哈里斯·马瑟恩 Jacqueline Harris Matherne
      西尔维娅·格雷丝·克里姆 Sylvia Grace Crim
      拉姆齐·安德森 Ramsey Anderson


◎标  签 悬疑 | 惊悚 | 美国 | 时空循环 | 喜剧 | 恐怖 | 2019 | 续集

◎简  介

  停靠在路边的汽车内,黄毛小子瑞恩(飞·武 Phi Vu 饰)被其他汽车的喇叭惊醒,他昏头昏脑走下来,一路晃进校园,进了实验室。由于正在研究的装置耗能巨大,学院院长气急败坏责令瑞恩停掉在研项目。糟糕的事不止于此,事后不久他就被一个带着面具的家伙给杀掉了。然而,他再度醒来, 发现自己还躺在车里,而接下来发生的一切都和“梦境”中的一样。瑞恩惶恐不安,找到了好基友卡特·戴维斯(伊瑟尔·布罗萨德 Israel Broussard 饰)及其女友泰莉·格尔布曼(杰西卡·罗德 Jessica Rothe 饰)。
这种生死轮回对于泰莉再熟悉不过了,她首先跟瑞恩讲述自己的经历,随后告诉他想终止轮回的方法只有找到凶手。而接下来,他们不仅发现瑞恩那台装置似乎是造成轮回的一个成因,而且泰莉再次回到了那个可怕的早晨……

Video
ID : 1
Format : AVC
Format/Info : Advanced Video Codec
Format profile : [email protected]
Format settings : CABAC / 5 Ref Frames
Format settings, CABAC : Yes
Format settings, ReFrames : 5 frames
Codec ID : V_MPEG4/ISO/AVC
Duration : 1 h 39 min
Bit rate : 4 535 kb/s
Width : 1 920 pixels
Height : 800 pixels
Display aspect ratio : 2.40:1
Frame rate mode : Constant
Frame rate : 23.976 (24000/1001) FPS
Color space : YUV
Chroma subsampling : 4:2:0
Bit depth : 8 bits
Scan type : Progressive
Bits/(Pixel*Frame) : 0.123
Stream size : 3.17 GiB (92%)
Title : Happy.Death.Day.2U.2019.1080p.WEB-DL.DD5.1.H264-FGT
Language : English
Default : Yes
Forced : No
Color range : Limited
Color primaries : BT.709
Transfer characteristics : BT.709
Matrix coefficients : BT.709

Audio
ID : 2
Format : AC-3
Format/Info : Audio Coding 3
Commercial name : Dolby Digital
Codec ID : A_AC3
Duration : 1 h 39 min
Bit rate mode : Constant
Bit rate : 384 kb/s
Channel(s) : 6 channels
Channel layout : L R C LFE Ls Rs
Sampling rate : 48.0 kHz
Frame rate : 31.250 FPS (1536 SPF)
Bit depth : 16 bits
Compression mode : Lossy
Stream size : 275 MiB (8%)
Title : Happy.Death.Day.2U.2019.1080p.WEB-DL.DD5.1.H264-FGT
Language : English
Service kind : Complete Main
Default : Yes
Forced : No

Text
ID : 3
Format : UTF-8
Codec ID : S_TEXT/UTF8
Codec ID/Info : UTF-8 Plain Text
Duration : 1 h 33 min
Bit rate : 63 b/s
Count of elements : 1604
Stream size : 43.8 KiB (0%)
Language : English
Default : Yes
Forced : No

Menu
00:00:00.000 : en:1
00:07:43.254 : en:2
00:16:02.086 : en:3
00:21:17.067 : en:4
00:24:22.460 : en:5
00:28:45.890 : en:6
00:32:35.661 : en:7
00:37:16.817 : en:8
00:42:03.812 : en:9
00:45:36.107 : en:10
00:48:38.664 : en:11
00:54:28.347 : en:12
01:00:37.340 : en:13
01:06:25.312 : en:14
01:13:20.518 : en:15
01:17:48.077 : en:16
01:21:32.760 : en:17
01:27:37.082 : en:18
01:33:03.992 : en:19
01:35:06.698 : en:20






1 个附件(点击附件名进行下载) 售价 大小 下载 时间

0 金币 34.94K 43 次 1月前

#1楼
发帖时间:1月前   |   查看数:0   |   回复数:0
游客组
快速回复