wenba

[WEB-1080P] [欧美] [剧情] 布莱顿惊魂 Body.at.Brighton.Rock.2019.1080p.WEB-DL.DD5.1.H264-FGT 3.38GB






◎译  名 布莱顿惊魂
◎片  名 Body at Brighton Rock
◎年  代 2019
◎产  地 美国
◎类  别 剧情
◎语  言 英语
◎上映日期 2019-03-08(西南偏南电影节) / 2019-04-26(美国)
◎IMDb评分 4.8/10 from 289 users
◎IMDb链接 http://www.imdb.com/title/tt7942746
◎豆瓣评分 3.8/10 from 86 users
◎豆瓣链接 https://movie.douban.com/subject/30476333/
◎片  长 87分钟
◎导  演 罗克珊·本杰明 Roxanne Benjamin
◎主  演 艾米莉·奥尔索斯 Emily Althaus
      米兰达·贝利 Miranda Bailey
      马丁·斯潘尼尔斯 Martin Spanjers
      马特·皮特斯 Matt Peters
      苏珊·伯克 Susan Burke
      约翰·盖兹 John Getz


◎标  签 惊悚 | 美国 | 2019 | 艾米莉·奥尔索斯 | 美国电影 | 悬疑 | 美國電影 | 米兰达·贝利

◎简  介

  Wendy(Karina Fontes饰)是个公园暑期工,努力想要证明自己有能力胜任这份工作。然而她不幸在山中迷路,发现了一个尸体并且被困在了案发现场。在通过无线电对讲机联络了管理方之后,作为公园职员,她必须保护好案发现场,和尸体共度一晚,她不得不面对黑暗和恐惧...

Video
ID : 1
Format : AVC
Format/Info : Advanced Video Codec
Format profile : [email protected]
Format settings : CABAC / 4 Ref Frames
Format settings, CABAC : Yes
Format settings, ReFrames : 4 frames
Codec ID : V_MPEG4/ISO/AVC
Duration : 1 h 27 min
Bit rate : 5 150 kb/s
Width : 1 916 pixels
Height : 1 036 pixels
Display aspect ratio : 1.85:1
Frame rate mode : Constant
Frame rate : 23.976 FPS
Color space : YUV
Chroma subsampling : 4:2:0
Bit depth : 8 bits
Scan type : Progressive
Bits/(Pixel*Frame) : 0.108
Stream size : 3.14 GiB (93%)
Title : Body.at.Brighton.Rock.2019.1080p.WEB-DL.DD5.1.H264-FGT
Language : English
Default : Yes
Forced : No
Color range : Limited
Color primaries : BT.709
Transfer characteristics : BT.709
Matrix coefficients : BT.709

Audio
ID : 2
Format : AC-3
Format/Info : Audio Coding 3
Commercial name : Dolby Digital
Codec ID : A_AC3
Duration : 1 h 27 min
Bit rate mode : Constant
Bit rate : 384 kb/s
Channel(s) : 6 channels
Channel layout : L R C LFE Ls Rs
Sampling rate : 48.0 kHz
Frame rate : 31.250 FPS (1536 SPF)
Bit depth : 16 bits
Compression mode : Lossy
Stream size : 240 MiB (7%)
Title : Body.at.Brighton.Rock.2019.1080p.WEB-DL.DD5.1.H264-FGT
Language : English
Service kind : Complete Main
Default : Yes
Forced : No

Menu
00:00:00.000 : en:Nature Center
00:06:58.126 : en:Posting signs
00:12:09.729 : en:Loss of bearings
00:16:30.781 : en:Pick a peak
00:23:41.294 : en:Grizzly discovery
00:25:40.579 : en:Radio for help
00:31:41.564 : en:Finding camp
00:37:37.252 : en:Discovery of claws
00:44:55.565 : en:Got one just like it
00:51:25.121 : en:Darkness falls
00:57:36.950 : en:Only you can prevent forest fires
01:01:53.205 : en:The Living Dead?
01:06:09.793 : en:Bear Off
01:11:56.722 : en:Falling from grace
01:17:25.341 : en:Barely alive
01:21:18.115 : en:Ghost from the past






1 个附件(点击附件名进行下载) 售价 大小 下载 时间

0 金币 34.32K 28 次 1月前

#1楼
发帖时间:1月前   |   查看数:0   |   回复数:0
游客组
快速回复