linxiang

[WEB-1080P] [2018] [欧美] [恐怖] 恶魔之眼 Demon.Eye.2019.1080p.WEB-DL.DD5.1.H264-FGT 2.99GB






◎译  名 恶魔之眼
◎片  名 Demon Eye
◎年  代 2018
◎产  地 英国
◎类  别 恐怖
◎语  言 英语
◎上映日期 2018-06-01(英国)
◎IMDb评分 3.6/10 from 160 users
◎IMDb链接 http://www.imdb.com/title/tt8028600
◎豆瓣评分 3.0/10 from 110 users
◎豆瓣链接 https://movie.douban.com/subject/30368053/
◎导  演 Ryan Simons
◎编  剧 Ryan Simons
◎主  演 Darren Day
      Liam Fox
      Kate James
      Ellie Goffe
      Jimmy Allen
      Alannah Marie


◎标  签 恐怖 | 惊悚 | 灵异 | 英国电影 | 英国 | 乱伦 | 2018 | 烂片

◎简  介

  灵感来自1850年的Saddleworth女巫的故事。在他神秘的死亡之后,一名年轻女子回到了她父亲在荒原上的乡间别墅,发现了一个与当地巫术有关的诅咒护身符。她发现护身符有黑暗的力量,并会给你最大的愿望,但作为回报,她解开了两个致命的恶魔,困扰着她......

Video
ID : 1
Format : AVC
Format/Info : Advanced Video Codec
Format profile : [email protected]
Format settings : CABAC / 5 Ref Frames
Format settings, CABAC : Yes
Format settings, ReFrames : 5 frames
Codec ID : V_MPEG4/ISO/AVC
Duration : 1 h 26 min
Bit rate : 4 557 kb/s
Width : 1 920 pixels
Height : 792 pixels
Display aspect ratio : 2.40:1
Frame rate mode : Constant
Frame rate : 24.000 FPS
Color space : YUV
Chroma subsampling : 4:2:0
Bit depth : 8 bits
Scan type : Progressive
Bits/(Pixel*Frame) : 0.125
Stream size : 2.76 GiB (92%)
Title : Demon.Eye.2019.1080p.WEB-DL.DD5.1.H264-FGT
Language : English
Default : Yes
Forced : No
Color range : Limited
Color primaries : BT.709
Transfer characteristics : BT.709
Matrix coefficients : BT.709

Audio
ID : 2
Format : AC-3
Format/Info : Audio Coding 3
Commercial name : Dolby Digital
Codec ID : A_AC3
Duration : 1 h 26 min
Bit rate mode : Constant
Bit rate : 384 kb/s
Channel(s) : 6 channels
Channel layout : L R C LFE Ls Rs
Sampling rate : 48.0 kHz
Frame rate : 31.250 FPS (1536 SPF)
Bit depth : 16 bits
Compression mode : Lossy
Stream size : 238 MiB (8%)
Title : Demon.Eye.2019.1080p.WEB-DL.DD5.1.H264-FGT
Language : English
Service kind : Complete Main
Default : Yes
Forced : No

Menu
00:00:00.000 : en:1
00:07:16.000 : en:2
00:14:49.000 : en:3
00:20:34.000 : en:4
00:25:12.000 : en:5
00:30:52.000 : en:6
00:35:53.000 : en:7
00:41:20.000 : en:8
00:48:43.000 : en:9
00:55:47.000 : en:10
00:59:52.000 : en:11
01:06:57.000 : en:12
01:12:54.000 : en:13
01:17:34.000 : en:14
01:21:17.000 : en:15
01:23:38.000 : en:16






1 个附件(点击附件名进行下载) 售价 大小 下载 时间

0 金币 30.41K 48 次 4月前

#1楼
发帖时间:4月前   |   查看数:0   |   回复数:0
游客组
快速回复