bulaite

[WEB-1080P] [欧美] [剧情] 高高在上 High.On.The.Hog.2019.1080p.WEB-DL.DD5.1.H264-FGT 3.36GB






◎译  名 高高在上
◎片  名 High on the Hog
◎年  代 2019
◎产  地 美国
◎类  别 剧情 / 动作 / 犯罪
◎语  言 英语
◎上映日期 2019-04-16(美国)
◎IMDb评分 3.7/10 from 107 users
◎IMDb链接 http://www.imdb.com/title/tt2386668
◎豆瓣评分 0/10 from 0 users
◎豆瓣链接 https://movie.douban.com/subject/33436435/
◎片  长 85分钟
◎导  演 Tony Wash
◎编  剧 Andy Golub / Kevin C. Lockhart
◎主  演 希德·黑格 Sid Haig
      乔·艾斯特维兹 Joe Estevez
      罗伯特·齐达 Robert Z'Dar
      Fiona Domenica
      Brenda Whitehead
      Siarra T. Mong
      Katrina Wolf Hill
      杰西·C·博伊德 Jesse C. Boyd
      Adam Budron
      Joette Waters
      Danny Glenn
      Walt Sloan


◎标  签 美国 | 犯罪 | 动作

◎简  介

  Big Daddy's farm-grown weed is the best in North America... which is why federal Agent Dick will stop at nothing to put Big Daddy and his adopted family - Laura, Lola, and Lenore - out of business. With this trio of lovely ladies, his trusted mute farmhand Jimmy, and the good folks of the small town he calls home, Big Daddy will fight to the end - to protect the land and the people he loves.

Video
ID : 1
Format : AVC
Format/Info : Advanced Video Codec
Format profile : [email protected]
Format settings : CABAC / 5 Ref Frames
Format settings, CABAC : Yes
Format settings, ReFrames : 5 frames
Codec ID : V_MPEG4/ISO/AVC
Duration : 1 h 37 min
Bit rate : 4 543 kb/s
Width : 1 912 pixels
Height : 792 pixels
Display aspect ratio : 2.40:1
Frame rate mode : Constant
Frame rate : 23.976 FPS
Color space : YUV
Chroma subsampling : 4:2:0
Bit depth : 8 bits
Scan type : Progressive
Bits/(Pixel*Frame) : 0.125
Stream size : 3.10 GiB (92%)
Title : High.On.The.Hog.2019.1080p.WEB-DL.DD5.1.H264-FGT
Language : English
Default : Yes
Forced : No
Color range : Limited
Color primaries : BT.709
Transfer characteristics : BT.709
Matrix coefficients : BT.709

Audio
ID : 2
Format : AC-3
Format/Info : Audio Coding 3
Commercial name : Dolby Digital
Codec ID : A_AC3
Duration : 1 h 37 min
Bit rate mode : Constant
Bit rate : 384 kb/s
Channel(s) : 6 channels
Channel layout : L R C LFE Ls Rs
Sampling rate : 48.0 kHz
Frame rate : 31.250 FPS (1536 SPF)
Bit depth : 16 bits
Compression mode : Lossy
Stream size : 268 MiB (8%)
Title : High.On.The.Hog.2019.1080p.WEB-DL.DD5.1.H264-FGT
Language : English
Service kind : Complete Main
Default : Yes
Forced : No

Text
ID : 3
Format : UTF-8
Codec ID : S_TEXT/UTF8
Codec ID/Info : UTF-8 Plain Text
Duration : 1 h 37 min
Bit rate : 81 b/s
Count of elements : 1508
Stream size : 58.4 KiB (0%)
Language : English
Default : Yes
Forced : No

Menu
00:00:00.000 : en:1
00:03:04.000 : en:2
00:14:20.000 : en:3
00:24:18.000 : en:4
00:33:30.000 : en:5
00:45:25.000 : en:6
00:56:14.000 : en:7
01:04:52.000 : en:8
01:13:54.000 : en:9
01:23:00.000 : en:10
01:35:12.000 : en:11






1 个附件(点击附件名进行下载) 售价 大小 下载 时间

0 金币 34.11K 19 次 4月前

#1楼
发帖时间:4月前   |   查看数:0   |   回复数:0
游客组
快速回复