tianji

[WEB-1080P] [欧美] [恐怖] 我制服了魔鬼 I.Trapped.The.Devil.2019.1080p.WEB-DL.DD5.1.H264-FGT 2.98GB






◎译  名 我制服了魔鬼 / A Man in the Dark
◎片  名 I Trapped the Devil
◎年  代 2019
◎产  地 美国
◎类  别 恐怖
◎语  言 英语
◎上映日期 2019-04-12(Imagine Film Festival)
◎IMDb评分 4.7/10 from 414 users
◎IMDb链接 http://www.imdb.com/title/tt8708304
◎豆瓣评分 3.8/10 from 63 users
◎豆瓣链接 https://movie.douban.com/subject/33389322/
◎片  长 82分钟
◎导  演 Josh Lobo
◎编  剧 Josh Lobo
◎主  演 克里斯·沙利文 Chris Sullivan
      乔赛琳·唐娜休 Jocelin Donahue
      AJ·鲍恩 AJ Bowen


◎标  签 恐怖 | 美国 | 2019 | 犯罪 | 悬疑 | 魔鬼 | 美国电影 | 长片

◎简  介

  Christmas is supposed to be a time for peace and joyful family reunions. But when Matt and his wife Karen show up unannounced at the home of his estranged brother Steve to celebrate the holidays, they are instead greeted with a horrifying surprise: trapped in the basement is a man. But not just any man. Steve believes that his hostage is none other than the devil himself.

Video
ID : 1
Format : AVC
Format/Info : Advanced Video Codec
Format profile : [email protected]
Format settings : CABAC / 5 Ref Frames
Format settings, CABAC : Yes
Format settings, ReFrames : 5 frames
Codec ID : V_MPEG4/ISO/AVC
Duration : 1 h 23 min
Bit rate : 4 712 kb/s
Width : 1 920 pixels
Height : 800 pixels
Display aspect ratio : 2.40:1
Frame rate mode : Constant
Frame rate : 23.976 (23976/1000) FPS
Color space : YUV
Chroma subsampling : 4:2:0
Bit depth : 8 bits
Scan type : Progressive
Bits/(Pixel*Frame) : 0.128
Stream size : 2.76 GiB (92%)
Title : I.Trapped.The.Devil.2019.1080p.WEB-DL.DD5.1.H264-FGT
Language : English
Default : Yes
Forced : No
Color range : Limited
Color primaries : BT.709
Transfer characteristics : BT.709
Matrix coefficients : BT.709

Audio
ID : 2
Format : AC-3
Format/Info : Audio Coding 3
Commercial name : Dolby Digital
Codec ID : A_AC3
Duration : 1 h 23 min
Bit rate mode : Constant
Bit rate : 384 kb/s
Channel(s) : 6 channels
Channel layout : L R C LFE Ls Rs
Sampling rate : 48.0 kHz
Frame rate : 31.250 FPS (1536 SPF)
Bit depth : 16 bits
Compression mode : Lossy
Stream size : 230 MiB (8%)
Title : I.Trapped.The.Devil.2019.1080p.WEB-DL.DD5.1.H264-FGT
Language : English
Service kind : Complete Main
Default : Yes
Forced : No

Text
ID : 3
Format : UTF-8
Codec ID : S_TEXT/UTF8
Codec ID/Info : UTF-8 Plain Text
Duration : 1 h 23 min
Bit rate : 35 b/s
Count of elements : 667
Stream size : 21.7 KiB (0%)
Language : English
Default : Yes
Forced : No

Menu
00:00:00.000 : en:1
00:11:23.767 : en:2
00:21:59.027 : en:3
00:34:57.305 : en:4
00:47:26.846 : en:5
00:58:07.277 : en:6
01:08:43.496 : en:7
01:20:18.815 : en:8






1 个附件(点击附件名进行下载) 售价 大小 下载 时间

0 金币 30.39K 15 次 1月前

#1楼
发帖时间:1月前   |   查看数:0   |   回复数:0
游客组
快速回复