style

[WEB-1080P] [2018] [欧美] [剧情] JT·莱罗伊/JT·勒罗伊 Jeremiah.Terminator.LeRoy.2018.1080p.WEB-DL.DD5.1.H264-FGT 3.80GB






◎译  名 JT·莱罗伊 / JT·勒罗伊 / Jeremiah Terminator LeRoy
◎片  名 JT Leroy
◎年  代 2018
◎产  地 美国
◎类  别 剧情 / 传记
◎语  言 英语
◎上映日期 2018-09-10(多伦多电影节)
◎IMDb评分 5.4/10 from 491 users
◎IMDb链接 http://www.imdb.com/title/tt5460522
◎豆瓣评分 6.4/10 from 216 users
◎豆瓣链接 https://movie.douban.com/subject/26844189/
◎片  长 105分钟
◎导  演 贾斯汀·凯利 Justin Kelly
◎编  剧 贾斯汀·凯利 Justin Kelly
◎主  演 克里斯汀·斯图尔特 Kristen Stewart
      黛安·克鲁格 Diane Kruger
      劳拉·邓恩 Laura Dern
      吉姆·斯特吉斯 Jim Sturgess
      科特妮·洛芙 Courtney Love
      小凯文·哈里森 Kelvin Harrison Jr.
      詹姆斯·贾格尔 James Jagger
      艾丽西亚·约翰斯顿 Alicia Johnston
      大卫·劳伦斯·布朗 David Lawrence Brown
      Will Woytowich
      Craig Haas
      Jim Kirby
      Lorrie Papadopoulos
      Derek James Trapp


◎标  签 传记 | KristenStewart | 美国 | 女性 | 2018 | 美国电影 | 克里斯汀·斯图尔特 | 电影

◎简  介

  故事改编自真实事件,讲述1999年,一个名叫JT LeRoy的变性男子以作家身份走红,后被揭发此人的形象其实是捏造出来的:所谓他写的书,其实是一个叫Laura Albert(邓恩饰演)的女人写的,而他出现在公众面前的形象,是一个叫Savannah Knoop的女人(斯图尔特饰演)扮演的。

Video
ID : 1
Format : AVC
Format/Info : Advanced Video Codec
Format profile : [email protected]
Format settings : CABAC / 5 Ref Frames
Format settings, CABAC : Yes
Format settings, ReFrames : 5 frames
Codec ID : V_MPEG4/ISO/AVC
Duration : 1 h 48 min
Bit rate : 4 627 kb/s
Width : 1 916 pixels
Height : 798 pixels
Display aspect ratio : 2.40:1
Frame rate mode : Constant
Frame rate : 23.976 (23976/1000) FPS
Color space : YUV
Chroma subsampling : 4:2:0
Bit depth : 8 bits
Scan type : Progressive
Bits/(Pixel*Frame) : 0.126
Stream size : 3.51 GiB (92%)
Title : Jeremiah.Terminator.LeRoy.2018.1080p.WEB-DL.DD5.1.H264-FGT
Language : English
Default : Yes
Forced : No
Color range : Limited
Color primaries : BT.709
Transfer characteristics : BT.709
Matrix coefficients : BT.709

Audio
ID : 2
Format : AC-3
Format/Info : Audio Coding 3
Commercial name : Dolby Digital
Codec ID : A_AC3
Duration : 1 h 48 min
Bit rate mode : Constant
Bit rate : 384 kb/s
Channel(s) : 6 channels
Channel layout : L R C LFE Ls Rs
Sampling rate : 48.0 kHz
Frame rate : 31.250 FPS (1536 SPF)
Bit depth : 16 bits
Compression mode : Lossy
Stream size : 298 MiB (8%)
Title : Jeremiah.Terminator.LeRoy.2018.1080p.WEB-DL.DD5.1.H264-FGT
Language : English
Service kind : Complete Main
Default : Yes
Forced : No

Menu
00:00:00.000 : en:1
00:07:20.148 : en:2
00:13:25.054 : en:3
00:18:07.960 : en:4
00:28:06.098 : en:5
00:38:48.865 : en:6
00:44:32.375 : en:7
00:55:52.679 : en:8
01:04:25.858 : en:9
01:16:41.009 : en:10
01:24:30.728 : en:11
01:37:00.601 : en:12






1 个附件(点击附件名进行下载) 售价 大小 下载 时间

0 金币 38.60K 23 次 4月前

#1楼
发帖时间:4月前   |   查看数:0   |   回复数:0
游客组
快速回复