jianpanshou

[BD-1080P] [2012] [欧美] [恐怖] 白雪公主:一个致命的夏天 Snow.White.A.Deadly.Summer.2012.1080p.BluRay.x264-MELiTE 6.56GB






◎译  名 白雪公主:一个致命的夏天
◎片  名 Snow White a Deadly Summer
◎年  代 2012
◎产  地 美国
◎类  别 恐怖
◎语  言 英语
◎上映日期 2012-03-22
◎IMDb评分 2.2/10 from 678 users
◎IMDb链接 http://www.imdb.com/title/tt2149137
◎豆瓣评分 2.8/10 from 541 users
◎豆瓣链接 https://movie.douban.com/subject/10566003/
◎片  长 85分钟
◎导  演 大卫·德科提奥
◎编  剧 珊莉·卡斯韦尔
◎主  演 珊莉·卡斯韦尔
      玛琳·麦考米克
      埃里克·罗伯茨
      提姆·阿贝尔
      R.J. Cantu


◎标  签 烂片 | 美国 | 恐怖 | 美国电影 | 2012 | 精神分裂 | 悬疑 | 白雪公主:一个致命的夏天

◎简  介

  白雪是一个正处在青春叛逆期的女孩,她不满父亲格兰特(艾瑞克?罗伯特斯 Eric Roberts 饰)和继母伊芙(玛瑞恩?麦柯米克 Maureen McCormick 饰)的婚姻,在家里处处与他们作对,在外逃课、飙车、惹祸,令人头痛。在伊芙的挑唆下,格兰特忍无可忍,将白雪强制送入“四周忠诚训练营”,一个旨在改造所有问题少年的活动。白雪被逼无奈,只得在烈日酷暑和教官呵斥怒骂下进行各种各样高强度的训练。
与此同时,心怀叵测的伊芙时刻图谋吞并格兰特的家产,为此,她必须除掉排在她前面法定继承人白雪。白雪不仅要想方设法保护自己,还要彻底挫败狠心继母的阴谋……

Video
ID : 1
Format : AVC
Format/Info : Advanced Video Codec
Format profile : [email protected]
Format settings, CABAC : Yes
Format settings, ReFrames : 4 frames
Muxing mode : Header stripping
Codec ID : V_MPEG4/ISO/AVC
Duration : 1h 23mn
Bit rate : 9 764 Kbps
Width : 1 920 pixels
Height : 1 080 pixels
Display aspect ratio : 16:9
Frame rate mode : Constant
Frame rate : 23.976 fps
Color space : YUV
Chroma subsampling : 4:2:0
Bit depth : 8 bits
Scan type : Progressive
Bits/(Pixel*Frame) : 0.196
Stream size : 5.55 GiB (85%)
Writing library : x264 core 122 r2184 5c85e0a
Encoding settings : cabac=1 / ref=4 / deblock=1:0:0 / analyse=0x3:0x113 / me=umh / subme=7 / psy=1 / psy_rd=1.00:0.00 / mixed_ref=1 / me_range=16 / chroma_me=1 / trellis=1 / 8x8dct=1 / cqm=0 / deadzone=21,11 / fast_pskip=0 / chroma_qp_offset=-2 / threads=12 / sliced_threads=0 / nr=0 / decimate=1 / interlaced=0 / bluray_compat=0 / constrained_intra=0 / bframes=3 / b_pyramid=2 / b_adapt=1 / b_bias=0 / direct=1 / weightb=1 / open_gop=0 / weightp=2 / keyint=250 / keyint_min=23 / scenecut=40 / intra_refresh=0 / rc_lookahead=40 / rc=2pass / mbtree=1 / bitrate=9764 / ratetol=1.0 / qcomp=0.60 / qpmin=0 / qpmax=69 / qpstep=4 / cplxblur=20.0 / qblur=0.5 / ip_ratio=1.40 / aq=1:1.00
Language : English
Default : Yes
Forced : No

Audio
ID : 2
Format : DTS
Format/Info : Digital Theater Systems
Mode : 16
Format settings, Endianness : Big
Muxing mode : Header stripping
Codec ID : A_DTS
Duration : 1h 23mn
Bit rate mode : Constant
Bit rate : 1 509 Kbps
Channel(s) : 6 channels
Channel positions : Front: L C R, Side: L R, LFE
Sampling rate : 48.0 KHz
Frame rate : 93.750 fps (512 spf)
Bit depth : 16 bits
Compression mode : Lossy
Stream size : 899 MiB (13%)
Default : Yes
Forced : No






1 个附件(点击附件名进行下载) 售价 大小 下载 时间

0 金币 66.15K 24 次 1月前

#1楼
发帖时间:1月前   |   查看数:0   |   回复数:0
游客组
快速回复