zacao

[BD-1080P] [2006] [其他] [剧情] 九月黎明/9月黎明 September.Dawn.2007.1080p.BluRay.x264-MELiTE 6.56GB






◎译  名 九月黎明 / 9月黎明
◎片  名 September Dawn
◎年  代 2006
◎产  地 加拿大
◎类  别 剧情 / 爱情 / 历史 / 西部
◎语  言 英语
◎上映日期 2007-05-17
◎IMDb评分 5.8/10 from 2785 users
◎IMDb链接 http://www.imdb.com/title/tt0473700
◎豆瓣评分 6.6/10 from 61 users
◎豆瓣链接 https://movie.douban.com/subject/2036944/
◎片  长 110 分钟
◎导  演 Christopher Cain
◎编  剧 Christopher Cain / Carole Whang Schutter
◎主  演 Terence Stamp
      Trent Ford
      Krisinda Cain
      Shaun Johnston
      Dean Cain


◎标  签 摩门教 | 加拿大 | 西部 | 屠杀 | September | 美国电影 | 剧情 | Dawn

◎简  介

  本片讲述的是19世纪一个罗密欧和朱丽叶式的爱情故事。故事以1857年9月11日发生的美洲历史上著名的高原惨案为背景,一批去往加利福尼亚的马车队路经犹他州南部,摩门教探知其中有1838年曾参与执行“清剿令”,强行将摩门教徒驱逐出密苏里州的Han's Mill惨案的凶手,随即作出复仇决定。他们暗中联合印第安人部落,对车队包围突袭,以上帝的名义击毙和处死120名男女,只有17名10岁以下儿童幸免。后来,参与指挥策划的摩门教首领John D.Lee被判死刑,20年后,摩门教领导人杨百翰的养子被判处死刑。因为电影所反应出来的观点,到今天这个事件一直饱受争议。
两个年轻人,一个是摩门教徒,是当地摩门主教的儿子,另一个是车马队牧师的小女儿,是从阿肯色州迁往加利福尼亚的移民,不管两个家族之间的仇恨多深,也不管世俗的看法多么顽固,两人还是萌生了美丽动人的爱情之苗,向对方倾诉自己的爱慕之情……
来源:时光网

Video
ID : 1
Format : AVC
Format/Info : Advanced Video Codec
Format profile : [email protected]
Format settings, CABAC : Yes
Format settings, ReFrames : 4 frames
Codec ID : V_MPEG4/ISO/AVC
Duration : 1h 51mn
Bit rate : 8 162 Kbps
Width : 1 920 pixels
Height : 1 080 pixels
Display aspect ratio : 16:9
Frame rate mode : Constant
Frame rate : 23.976 (24000/1001) fps
Color space : YUV
Chroma subsampling : 4:2:0
Bit depth : 8 bits
Scan type : Progressive
Bits/(Pixel*Frame) : 0.164
Stream size : 6.36 GiB (97%)
Writing library : x264 core 142 r2479 dd79a61
Encoding settings : cabac=1 / ref=4 / deblock=1:0:0 / analyse=0x3:0x113 / me=umh / subme=8 / psy=1 / psy_rd=1.00:0.00 / mixed_ref=1 / me_range=16 / chroma_me=1 / trellis=1 / 8x8dct=1 / cqm=0 / deadzone=21,11 / fast_pskip=0 / chroma_qp_offset=-2 / threads=12 / lookahead_threads=2 / sliced_threads=0 / nr=0 / decimate=1 / interlaced=0 / bluray_compat=0 / constrained_intra=0 / bframes=3 / b_pyramid=2 / b_adapt=2 / b_bias=0 / direct=3 / weightb=1 / open_gop=0 / weightp=2 / keyint=250 / keyint_min=23 / scenecut=40 / intra_refresh=0 / rc_lookahead=50 / rc=2pass / mbtree=1 / bitrate=8162 / ratetol=1.0 / qcomp=0.60 / qpmin=0 / qpmax=69 / qpstep=4 / cplxblur=20.0 / qblur=0.5 / ip_ratio=1.40 / aq=1:1.00
Default : Yes
Forced : No

Audio
ID : 2
Format : AC-3
Format/Info : Audio Coding 3
Mode extension : CM (complete main)
Format settings, Endianness : Big
Codec ID : A_AC3
Duration : 1h 51mn
Bit rate mode : Constant
Bit rate : 256 Kbps
Channel(s) : 2 channels
Channel positions : Front: L R
Sampling rate : 48.0 KHz
Frame rate : 31.250 fps (1536 spf)
Compression mode : Lossy
Stream size : 204 MiB (3%)
Language : English
Default : Yes
Forced : No






1 个附件(点击附件名进行下载) 售价 大小 下载 时间

0 金币 66.13K 21 次 1月前

#1楼
发帖时间:1月前   |   查看数:0   |   回复数:0
游客组
快速回复